BitTorrentTracker PerecTracker.org
BitTorrentTracker PerecTracker.org
    
Регистрация  ·  Вход
 
 · 
Забыли пароль?

  • Бэтмен против Робина / Batman vs. Robin (Джей Олива / Jay Oliva) [2015, мультфильм, боевик, приключения, BDRip-AVC] MVO + Rus Sub + Original Eng

    Ответить на тему
     
    Автор Сообщение

    rechyn

    Создавать темы 29-Апр-2015 03:36

           

    [Цитировать]

    Бэтмен против Робина | Batman vs. Robin-Страна: США
    Жанр: мультфильм, боевик, приключения
    Продолжительность: 1:20:00
    Год выпуска: 2015
    Перевод: Любительский (многоголосый закадровый) DuBDraG ProJECT
    Русские субтитры: есть
    Режиссёр: Джей Олива / Jay Oliva
    Роли озвучивали: Стюарт Алланб, Трой Бэйкер, Кевин Конрой, Тревор Дивэлл, Робин Аткин Даунс, Гриффин Глюк, Грэй Гриффин-ОписаниеВ Готем возвращается тайная масонская организация Суд Сов, берущая на себя власть казнить как преступников, так и просто неугодных им городских деятелей. Выясняется, что именно они стали когда-то причиной убийства родителей Уэйна-Сэмпл


    Качество: BDRip-AVC Batman.vs.Robin.2015.1080p.BluRay.AVC.DTS-HD.MA.5.1-HDAccess
    Формат: MKV
    Видео: AVC 2449 Kbps 1152 x 648 (1.778) 23.976 fps
    Аудио: AC-3 448 Kbps 6 channels, 48.0 KHz Rus MVO DuBDraG ProJECT
    Аудио 2: AC-3 448 Kbps 6 channels, 48.0 KHz Eng
    Субтитры: Rus SRT

    MI

    Format : MatroskaFormat version : Version 4 / Version 2File size : 1.91 GiBDuration : 1h 20mnOverall bit rate : 3 413 KbpsEncoded date : UTC 2015-04-28 23:18:36Writing application : mkvmerge v6.7.0 ('Back to the Ground') 32bit built on Jan 8 2014 15:03:17Writing library : libebml v1.3.0 + libmatroska v1.4.1
    VideoID : 1Format : AVCFormat/Info : Advanced Video CodecFormat profile : High@L4.1Format settings, CABAC : YesFormat settings, ReFrames : 11 framesCodec ID : V_MPEG4/ISO/AVCDuration : 1h 20mnBit rate : 2 449 KbpsWidth : 1 152 pixelsHeight : 648 pixelsDisplay aspect ratio : 16:9Frame rate mode : ConstantFrame rate : 23.976 fpsColor space : YUVChroma subsampling : 4:2:0Bit depth : 8 bitsScan type : ProgressiveBits/(Pixel*Frame) : 0.137Stream size : 1.37 GiB (72%)Title : Batman vs. Robin 2015 [perectracker.org]Writing library : x264 core 146 r2538kMod 121396cEncoding settings : cabac=1 / ref=11 / deblock=1:-2:-1 / analyse=0x3:0x133 / me=umh / subme=11 / psy=1 / fade_compensate=0.00 / psy_rd=1.00:0.05 / mixed_ref=1 / me_range=32 / chroma_me=1 / trellis=2 / 8x8dct=1 / cqm=0 / deadzone=21,11 / fast_pskip=0 / chroma_qp_offset=-3 / threads=12 / lookahead_threads=3 / sliced_threads=0 / nr=0 / decimate=1 / interlaced=0 / bluray_compat=0 / constrained_intra=0 / fgo=0 / bframes=12 / b_pyramid=2 / b_adapt=2 / b_bias=0 / direct=3 / weightb=1 / open_gop=0 / weightp=2 / keyint=250 / keyint_min=23 / scenecut=40 / intra_refresh=0 / rc_lookahead=80 / rc=crf / mbtree=0 / crf=16.3000 / qcomp=0.60 / qpmin=0 / qpmax=69 / qpstep=4 / vbv_maxrate=50000 / vbv_bufsize=62500 / crf_max=0.0 / nal_hrd=none / filler=0 / ip_ratio=1.40 / pb_ratio=1.30 / aq=3:0.90Language : EnglishDefault : YesForced : No
    Audio #1ID : 2Format : AC-3Format/Info : Audio Coding 3Mode extension : CM (complete main)Format settings, Endianness : BigCodec ID : A_AC3Duration : 1h 20mnBit rate mode : ConstantBit rate : 448 KbpsChannel(s) : 6 channelsChannel positions : Front: L C R, Side: L R, LFESampling rate : 48.0 KHzBit depth : 16 bitsCompression mode : LossyStream size : 256 MiB (13%)Title : MVO [DuBDraG ProJECT]Language : RussianDefault : YesForced : No
    Audio #2ID : 3Format : AC-3Format/Info : Audio Coding 3Mode extension : CM (complete main)Format settings, Endianness : BigCodec ID : A_AC3Duration : 1h 20mnBit rate mode : ConstantBit rate : 448 KbpsChannel(s) : 6 channelsChannel positions : Front: L C R, Side: L R, LFESampling rate : 48.0 KHzBit depth : 16 bitsCompression mode : LossyStream size : 256 MiB (13%)Title : OriginalLanguage : EnglishDefault : NoForced : No
    TextID : 4Format : UTF-8Codec ID : S_TEXT/UTF8Codec ID/Info : UTF-8 Plain TextTitle : FullLanguage : RussianDefault : NoForced : No
    Menu00:00:00.000 : en:00:00:00.00000:09:04.127 : en:00:09:04.12700:20:18.551 : en:00:20:18.55100:28:18.155 : en:00:28:18.15500:39:18.273 : en:00:39:18.27300:50:50.589 : en:00:50:50.58901:01:55.253 : en:01:01:55.25301:10:11.999 : en:01:10:11.99901:16:51.982 : en:01:16:51.982

    Скриншоты



    Скачать .torrent

    Скачать торрент-файл бесплатно и на максимальной скорости!

    Как скачивать? · Что такое торрент? · Рейтинг и ограничения

    !ВНИМАНИЕ!
    Сайт не распространяет и не хранит электронные версии произведений, а занимается лишь лишь предоставлением доступа к создаваемому пользователями каталогу ссылок на торрент-файлы, которые содержат только списки хеш-сумм, убедительная просьба с жалобами обращаться напрямую к пользователю. Файлы для обмена на трекере предоставлены пользователями сайта, и администрация не несёт ответственности за их содержание. Просьба не заливать файлы, защищенные авторскими правами, а также файлы нелегального содержания!


    _________________
    [Профиль] [ЛС]
    Показать сообщения:    
    Ответить на тему

    Текущее время: Сегодня, в 12:58

    Часовой пояс: GMT + 2



    Вы не можете начинать темы
    Вы не можете отвечать на сообщения
    Вы не можете редактировать свои сообщения
    Вы не можете удалять свои сообщения
    Вы не можете голосовать в опросах
    Вы не можете прикреплять файлы к сообщениям
    Вы не можете скачивать файлы