BitTorrentTracker PerecTracker.org
BitTorrentTracker PerecTracker.org
    
Регистрация  ·  Вход
 
 · 
Забыли пароль?

  • Счастье – это... (Артём Прохоров, Леонид Залесский, Анна Яновская) [2015, Семейный, мелодрама, WEB-DLRip]

    Ответить на тему
     
    Автор Сообщение

    rechyn

    Создавать темы 29-Апр-2015 03:36

           

    [Цитировать]

    Счастье – это...
    Жанр: Семейный, мелодрама
    Год выпуска: 2015
    Продолжительность: 01:38:16
    Режиссёр: Артём Прохоров, Леонид Залесский, Анна Яновская
    В ролях: Станислав Дужников, Борис Щербаков, Валерий Гаркалин, Андрей Мерзликин, Егор Бероев, Светлана Иванова, Павел Прилучный, Сергей Пускепалис, Сергей Лавыгин, Алина Бабак
    Описание: В ленте собраны семь историй, каждая из которых имеет добрый финал и по-своему доказывает, что все достойны счастья.Сэмпл: http://sendfile.su/1112602
    Качество видео: WEB-DLRip
    Формат видео: AVI
    Видео: MPEG4, XviD, 720x304 (2.35:1), 25.000 fps, 1 734 Kbps (0.317 bit/pixel)
    Аудио: AC-3, 48.0 KHz, 6 ch, 384 Kbps, CBR

    MediaInfo

    Общее
    Полное имя : C:\Users\1\Downloads\C4aCtje.ET0.2015.O.WEB-DLRip.1.46Gb.avi
    Формат : AVI
    Формат/Информация : Audio Video Interleave
    Размер файла : 1,46 Гбайт
    Продолжительность : 1 ч. 38 м.
    Общий поток : 2128 Кбит/сек
    Программа кодирования : VirtualDubMod 1.5.10.3 ||| (build 2550/release)
    Библиотека кодирования : VirtualDubMod build 2550/release
    Видео
    Идентификатор : 0
    Формат : MPEG-4 Visual
    Профиль формата : Advanced Simple@L5
    Параметр BVOP формата : 2
    Параметр QPel формата : Нет
    Параметр GMC формата : Без точки перехода
    Параметр матрицы формата : Default (MPEG)
    Идентификатор кодека : XVID
    Идентификатор кодека/Подсказка : XviD
    Продолжительность : 1 ч. 38 м.
    Битрейт : 1734 Кбит/сек
    Ширина : 720 пикселей
    Высота : 304 пикселя
    Соотношение сторон : 2,35:1
    Частота кадров : 25,000 кадров/сек
    Цветовое пространство : YUV
    Субдискретизация насыщенности : 4:2:0
    Битовая глубина : 8 бит
    Тип развёртки : Прогрессивная
    Метод сжатия : С потерями
    Бит/(Пиксели*Кадры) : 0.317
    Размер потока : 1,19 Гбайт (81%)
    Библиотека кодирования : XviD 1.2.1 (UTC 2008-12-04)
    Аудио
    Идентификатор : 1
    Формат : AC-3
    Формат/Информация : Audio Coding 3
    Расширение режима : CM (complete main)
    Параметр Endianness формата : Big
    Идентификатор кодека : 2000
    Продолжительность : 1 ч. 38 м.
    Вид битрейта : Постоянный
    Битрейт : 384 Кбит/сек
    Каналы : 6 каналов
    Расположение каналов : Front: L C R, Side: L R, LFE
    Частота : 48,0 КГц
    Битовая глубина : 16 бит
    Метод сжатия : С потерями
    Размер потока : 270 Мбайт (18%)
    Выравнивание : Разделение по промежуткам
    Продолжительность промежутка : 40 мс. (1,00 видеокадр)
    Время предзагрузки промежутка : 500 мс.

    Скриншоты

    Скачать .torrent

    Скачать торрент-файл бесплатно и на максимальной скорости!

    Как скачивать? · Что такое торрент? · Рейтинг и ограничения

    !ВНИМАНИЕ!
    Сайт не распространяет и не хранит электронные версии произведений, а занимается лишь лишь предоставлением доступа к создаваемому пользователями каталогу ссылок на торрент-файлы, которые содержат только списки хеш-сумм, убедительная просьба с жалобами обращаться напрямую к пользователю. Файлы для обмена на трекере предоставлены пользователями сайта, и администрация не несёт ответственности за их содержание. Просьба не заливать файлы, защищенные авторскими правами, а также файлы нелегального содержания!


    _________________
    [Профиль] [ЛС]
    Показать сообщения:    
    Ответить на тему

    Текущее время: Сегодня, в 22:17

    Часовой пояс: GMT + 2



    Вы не можете начинать темы
    Вы не можете отвечать на сообщения
    Вы не можете редактировать свои сообщения
    Вы не можете удалять свои сообщения
    Вы не можете голосовать в опросах
    Вы не можете прикреплять файлы к сообщениям
    Вы не можете скачивать файлы