BitTorrentTracker PerecTracker.org
BitTorrentTracker PerecTracker.org
    
Регистрация  ·  Вход
 
 · 
Забыли пароль?

  • Женщины против мужчин (Таир Мамедов) [2015, Россия, Комедия, WEB-DL, HD (720p)] Original

    Ответить на тему
     
    Автор Сообщение

    rechyn

    Создавать темы 28-Апр-2015 15:00

           

    [Цитировать]

    Женщины против мужчин
    -
    4.016 / 10
    -Год выпуска: 2015
    Страна: Россия
    Жанр: Комедия
    Продолжительность: 01:24:04
    Перевод: Не требуется
    Оригинальная аудиодорожка: Есть
    Режиссёр: Таир Мамедов
    Сценарий: Таир Мамедов, Сергей Нежданов, Леонид Марголин
    Продюсер: Сарик Андреасян, Гевонд Андреасян, Владимир Поляков
    Оператор: Антон Зенкович
    Композитор: Денис Суров
    Художник: Давид Дадунашвили, Оксана Шевченко
    Монтаж: Георгий Исаакян
    В ролях: Роман Юнусов, Александр Головин, Денис Косяков, Мария Кравченко, Настасья Самбурская, Наталья Рудова, Таир Мамедов, Олег Верещагин, Карен Манташян, Александр Шаляпин
    Бюджет: 50 000 000 руб.
    Мировая премьера: 9 апреля 2015
    Премьера (РФ): 1 апреля 2015, «Каропрокат»
    Релиз на DVD: 28 апреля 2015, «CD Land»
    Описание: Школьная любовь трех замечательных пар заканчивается тремя прекрасными свадьбами и сумасшедшим свадебным путешествием на экзотическую и горячую Кубу. Но первый же день долгожданного медового месяца окончился гигантской ссорой, переходящей в вечную войну мужчин против женщин. А на войне, как и в любви, правил нет! Пираньи в бассейн? Запросто! Пожар в номере? Не вопрос! Флирт на глазах у любимого мужа? Однозначно, да! И все это, конечно же, во имя любви!-Качество: WEB-DL 720p
    Тип: WEB-DL
    Контейнер: M4V
    Видео: H.264, 1280x536, 2.40:1, 4 069 Kbps, 24.000 fps
    Аудио 1: Русский/Оригинальная дорожка , AAC / 2.0 / 170 Kbps / 48.0 KHz
    Аудио 2: Русский/Оригинальная дорожка , AC-3 / 5.1 / 384 Kbps / 48.0 KHz
    -

    iTunes Meta Tags

    Sort Name: Женщины против мужчин
    XID: Apple:vendor_id:2015-841956
    contentID: 841956
    Screenwriters: Таир Мамедов, Сергей Нежданов, Леонид Марголин
    Producers: Сарик Андреасян, Гевонд Андреасян, Владимир Поляков
    Director: Таир Мамедов
    Cast: Роман Юнусов, Александр Головин, Денис Косяков, Мария Кравченко, Настасья Самбурская, Наталья Рудова, Таир Мамедов, Олег Верещагин, Карен Манташян, Александр Шаляпин
    Long Description: Школьная любовь трех замечательных пар заканчивается тремя прекрасными свадьбами и сумасшедшим свадебным путешествием на экзотическую и горячую Кубу. Но первый же день долгожданного медового месяца окончился гигантской ссорой, переходящей в вечную войну мужчин против женщин. А на войне, как и в любви, правил нет! Пираньи в бассейн? Запросто! Пожар в номере? Не вопрос! Флирт на глазах у любимого мужа? Однозначно, да! И все это, конечно же, во имя любви!
    Description: Школьная любовь трех замечательных пар заканчивается тремя прекрасными свадьбами и сумасшедшим свадебным путешествием на экзотическую и горячую Кубу.
    Release Date: 2015-04-09T08:00:00Z
    Genre: Comedy
    Artist: Таир Мамедов
    Name: Женщины против мужчин

    MediaInfo

    General
    Complete name                            : /Users/imac/HandBrake/Zhenshchiny.protiv.muzhchin.720p.WEB-DL.m4v
    Format                                   : MPEG-4
    Codec ID                                 : M4V
    File size                                : 2.72 GiB
    Duration                                 : 1h 24mn
    Overall bit rate mode                    : Variable
    Overall bit rate                         : 4 632 Kbps
    Movie name                               : Женщины против мужчин
    Performer                                : Таир Мамедов
    Genre                                    : Comedy
    Recorded date                            : UTC 2015-04-09 08:00:00
    Encoded date                             : UTC 2015-04-27 23:16:14
    Tagged date                              : UTC 2015-04-28 11:19:48
    Cover                                    : Yes
    sonm                                     : Женщины против мужчин
    desc                                     : Школьная любовь трех замечательных пар заканчивается тремя прекрасными свадьбами и сумасшедшим свадебным путешествием на экзотическую и горячую Кубу.
    ldes                                     : Школьная любовь трех замечательных пар заканчивается тремя прекрасными свадьбами и сумасшедшим свадебным путешествием на экзотическую и горячую Кубу. Но первый же день долгожданного медового месяца окончился гигантской ссорой, переходящей в вечную войну мужчин против женщин. А на войне, как и в любви, правил нет! Пираньи в бассейн? Запросто! Пожар в номере? Не вопрос! Флирт на глазах у любимого мужа? Однозначно, да! И все это, конечно же, во имя любви!
    hdvd                                     : 1
    stik                                     : 9
    rtng                                     : 0
    cnID                                     : 841956
    xid                                      : Apple:vendor_id:2015-841956
    iTunMOVI                                 : <?xml version=\"1.0\" encoding=\"UTF-8\"?> / <!DOCTYPE plist PUBLIC \"-//Apple//DTD PLIST 1.0//EN\" \"http://anonym.to/?http://www.apple.com/DTDs/PropertyList-1.0.dtd\"> / <plist version=\"1.0\"> / <dict> /  <key>cast</key> /  <array> /   <dict> /    <key>name</key> /    <string>Роман Юнусов</string> /   </dict> /   <dict> /    <key>name</key> /    <string>Александр Головин</string> /   </dict> /   <dict> /    <key>name</key> /    <string>Денис Косяков</string> /   </dict> /   <dict> /    <key>name</key> /    <string>Мария Кравченко</string> /   </dict> /   <dict> /    <key>name</key> /    <string>Настасья Самбурская</string> /   </dict> /   <dict> /    <key>name</key> /    <string>Наталья Рудова</string> /   </dict> /   <dict> /    <key>name</key> /    <string>Таир Мамедов</string> /   </dict> /   <dict> /    <key>name</key> /    <string>Олег Верещагин</string> /   </dict> /   <dict> /    <key>name</key> /    <string>Карен Манташян</string> /   </dict> /   <dict> /    <key>name</key> /    <string>Александр Шаляпин</string> /   </dict> /  </array> /  <key>directors</key> /  <array> /   <dict> /    <key>name</key> /    <string>Таир Мамедов</string> /   </dict> /  </array> /  <key>producers</key> /  <array> /   <dict> /    <key>name</key> /    <string>Сарик Андреасян</string> /   </dict> /   <dict> /    <key>name</key> /    <string>Гевонд Андреасян</string> /   </dict> /   <dict> /    <key>name</key> /    <string>Владимир Поляков</string> /   </dict> /  </array> /  <key>screenwriters</key> /  <array> /   <dict> /    <key>name</key> /    <string>Таир Мамедов</string> /   </dict> /   <dict> /    <key>name</key> /    <string>Сергей Нежданов</string> /   </dict> /   <dict> /    <key>name</key> /    <string>Леонид Марголин</string> /   </dict> /  </array> / </dict> / </plist>
    Video #1
    ID                                       : 1
    Format                                   : AVC
    Format/Info                              : Advanced Video Codec
    Format profile                           : Main@L3.1
    Format settings, CABAC                   : No
    Format settings, ReFrames                : 2 frames
    Codec ID                                 : avc1
    Codec ID/Info                            : Advanced Video Coding
    Duration                                 : 1h 24mn
    Bit rate                                 : 4 069 Kbps
    Maximum bit rate                         : 13.9 Mbps
    Width                                    : 1 280 pixels
    Height                                   : 536 pixels
    Display aspect ratio                     : 2.40:1
    Frame rate mode                          : Constant
    Frame rate                               : 24.000 fps
    Color space                              : YUV
    Chroma subsampling                       : 4:2:0
    Bit depth                                : 8 bits
    Scan type                                : Progressive
    Bits/(Pixel*Frame)                       : 0.247
    Stream size                              : 2.39 GiB (88%)
    Title                                    : Zhenshchiny protiv muzhchin _2015_ _ Release for HDCLUB
    Language                                 : Russian
    Encoded date                             : UTC 2015-04-27 23:16:14
    Tagged date                              : UTC 2015-04-27 23:17:37
    Color primaries                          : BT.709-5, BT.1361, IEC 61966-2-4, SMPTE RP177
    Transfer characteristics                 : BT.709-5, BT.1361
    Matrix coefficients                      : BT.709-5, BT.1361, IEC 61966-2-4 709, SMPTE RP177
    Video #2
    ID                                       : 5
    Format                                   : JPEG
    Codec ID                                 : jpeg
    Duration                                 : 1h 24mn
    Bit rate mode                            : Variable
    Bit rate                                 : 807 bps
    Width                                    : 640 pixels
    Height                                   : 268 pixels
    Display aspect ratio                     : 2.40:1
    Frame rate mode                          : Variable
    Frame rate                               : 0.002 fps
    Minimum frame rate                       : 0.001 fps
    Maximum frame rate                       : 0.005 fps
    Color space                              : YUV
    Chroma subsampling                       : 4:2:0
    Bit depth                                : 8 bits
    Compression mode                         : Lossy
    Bits/(Pixel*Frame)                       : 2.352
    Stream size                              : 443 KiB (0%)
    Language                                 : Russian
    Encoded date                             : UTC 2015-04-28 11:19:47
    Tagged date                              : UTC 2015-04-28 11:19:48
    Audio #1
    ID                                       : 2
    Format                                   : AAC
    Format/Info                              : Advanced Audio Codec
    Format profile                           : LC
    Codec ID                                 : 40
    Duration                                 : 1h 24mn
    Bit rate mode                            : Variable
    Bit rate                                 : 170 Kbps
    Maximum bit rate                         : 230 Kbps
    Channel(s)                               : 2 channels
    Channel positions                        : Front: L R
    Sampling rate                            : 48.0 KHz
    Compression mode                         : Lossy
    Stream size                              : 102 MiB (4%)
    Title                                    : AAC AC3 5.1 _ 384 kbps
    Language                                 : Russian
    Encoded date                             : UTC 2015-04-27 23:14:32
    Tagged date                              : UTC 2015-04-27 23:17:37
    Audio #2
    ID                                       : 3
    Format                                   : AC-3
    Format/Info                              : Audio Coding 3
    Mode extension                           : CM (complete main)
    Format settings, Endianness              : Big
    Codec ID                                 : ac-3
    Duration                                 : 1h 24mn
    Bit rate mode                            : Constant
    Bit rate                                 : 384 Kbps
    Channel(s)                               : 6 channels
    Channel positions                        : Front: L C R, Side: L R, LFE
    Sampling rate                            : 48.0 KHz
    Bit depth                                : 16 bits
    Compression mode                         : Lossy
    Stream size                              : 231 MiB (8%)
    Title                                    : AC3 AC3 5.1 _ 384 kbps
    Language                                 : Russian
    Encoded date                             : UTC 2015-04-27 23:17:31
    Tagged date                              : UTC 2015-04-27 23:17:37
    Text
    ID                                       : 4
    Format                                   : Apple text
    Codec ID                                 : text
    Duration                                 : 1h 24mn
    Bit rate mode                            : Constant
    Bit rate                                 : 0 bps
    Stream size                              : 162 Bytes (0%)
    Language                                 : Russian
    Encoded date                             : UTC 2015-04-27 23:18:39
    Tagged date                              : UTC 2015-04-27 23:18:39

    Скриншоты

    -

    Релиз подготовлен для просмотра на Apple TV, iPad, iPhone, iPod Touch.
    Для просмотра данного релиза на компьютере с ОС Windows рекомендуется использовать VLC media player
    Скачать .torrent

    Скачать торрент-файл бесплатно и на максимальной скорости!

    Как скачивать? · Что такое торрент? · Рейтинг и ограничения

    !ВНИМАНИЕ!
    Сайт не распространяет и не хранит электронные версии произведений, а занимается лишь лишь предоставлением доступа к создаваемому пользователями каталогу ссылок на торрент-файлы, которые содержат только списки хеш-сумм, убедительная просьба с жалобами обращаться напрямую к пользователю. Файлы для обмена на трекере предоставлены пользователями сайта, и администрация не несёт ответственности за их содержание. Просьба не заливать файлы, защищенные авторскими правами, а также файлы нелегального содержания!


    _________________
    [Профиль] [ЛС]
    Показать сообщения:    
    Ответить на тему

    Текущее время: Сегодня, в 02:05

    Часовой пояс: GMT + 2



    Вы не можете начинать темы
    Вы не можете отвечать на сообщения
    Вы не можете редактировать свои сообщения
    Вы не можете удалять свои сообщения
    Вы не можете голосовать в опросах
    Вы не можете прикреплять файлы к сообщениям
    Вы не можете скачивать файлы