BitTorrentTracker PerecTracker.org
BitTorrentTracker PerecTracker.org
    
Регистрация  ·  Вход
 
 · 
Забыли пароль?

  • Сельма / Selma (Ава ДюВерней / Ava DuVernay) [2014, Великобритания, США, драма, биография, история, HDRip] DVO

    Ответить на тему
     
    Автор Сообщение

    Light

    Создавать темы 28-Апр-2015 15:00

           

    [Цитировать]

    Сельма / Selma«One dream can change the world»Страна: Великобритания, США
    Жанр: драма, биография, история
    Год выпуска: 2014
    Продолжительность: 02:07:55
    Перевод: Любительский (двухголосый закадровый) [ColdFilm]
    Cубтитры: нет
    Оригинальная аудиодорожка: нет
    Режиссер: Ава ДюВерней / Ava DuVernay
    В ролях: Дэвид Ойелоуо, Кармен Эджого, Том Уилкинсон, Тим Рот, Лоррейн Туссен, Коммон, Джованни Рибизи, Рубен Сантьяго-Хадсон, Опра Уинфри, Кьюба Гудинг мл.
    Описание: Драма о маршах протеста, устроенных знаменитым правозащитником Мартином Лютером Кингом в местечке Сельма, штат Алабама.

    Качество видео: HDRip (Исх. BDRip 720p)
    Формат видео: AVI
    Видео: 720x304 (2.37:1), 25 fps, XviD build 73 ~1428 kbps avg, 0.26 bit/pixel
    Аудио: 48 kHz, AC3 Dolby Digital, 2/0 (L,R) ch, ~192.00 kbps avg

    MediaInfo

    Общее
    Полное имя : S:\Фильмы\Сельма. 2014. HDRip (AleksSin).avi
    Формат : AVI
    Формат/Информация : Audio Video Interleave
    Размер файла : 1,46 Гбайт
    Продолжительность : 2 ч. 7 м.
    Общий поток : 1629 Кбит/сек
    Программа кодирования : VirtualDubModRus 1.5.10.2 (build 2542/release)
    Библиотека кодирования : VirtualDubMod build 2542/release
    Видео
    Идентификатор : 0
    Формат : MPEG-4 Visual
    Профиль формата : Advanced Simple@L5
    Параметр BVOP формата : 1
    Параметр QPel формата : Нет
    Параметр GMC формата : Без точки перехода
    Параметр матрицы формата : Выборочная
    Идентификатор кодека : XVID
    Идентификатор кодека/Подсказка : XviD
    Продолжительность : 2 ч. 7 м.
    Битрейт : 1428 Кбит/сек
    Ширина : 720 пикс.
    Высота : 304 пикс.
    Соотношение сторон : 2,35:1
    Частота кадров : 25,000 кадр/сек
    Цветовое пространство : YUV
    Подвыборка цветности : 4:2:0
    Битовая глубина : 8 бит
    Тип развёртки : Прогрессивная
    Метод сжатия : С потерями
    Бит/(Пиксели*Кадры) : 0.261
    Размер потока : 1,28 Гбайт (88%)
    Библиотека кодирования : XviD 73
    Аудио
    Идентификатор : 1
    Формат : AC-3
    Формат/Информация : Audio Coding 3
    Расширение режима : CM (complete main)
    Идентификатор кодека : 2000
    Продолжительность : 2 ч. 7 м.
    Вид битрейта : Постоянный
    Битрейт : 192 Кбит/сек
    Каналы : 2 канала
    Расположение каналов : Front: L R
    Частота : 48,0 КГц
    Битовая глубина : 16 бит
    Метод сжатия : С потерями
    Задержка видео : 7 мс.
    Размер потока : 176 Мбайт (12%)
    Выравнивание : Разделение по промежуткам
    Продолжительность промежутка : 40 мс. (1,00 видеокадр)
    Время предзагрузки промежутка : 500 ms

    Скриншот c названием фильма

    Скриншоты

    Скачать .torrent

    Скачать торрент-файл бесплатно и на максимальной скорости!

    Как скачивать? · Что такое торрент? · Рейтинг и ограничения

    !ВНИМАНИЕ!
    Сайт не распространяет и не хранит электронные версии произведений, а занимается лишь лишь предоставлением доступа к создаваемому пользователями каталогу ссылок на торрент-файлы, которые содержат только списки хеш-сумм, убедительная просьба с жалобами обращаться напрямую к пользователю. Файлы для обмена на трекере предоставлены пользователями сайта, и администрация не несёт ответственности за их содержание. Просьба не заливать файлы, защищенные авторскими правами, а также файлы нелегального содержания!


    _________________
    [Профиль] [ЛС]
    Показать сообщения:    
    Ответить на тему

    Текущее время: Сегодня, в 21:26

    Часовой пояс: GMT + 2



    Вы не можете начинать темы
    Вы не можете отвечать на сообщения
    Вы не можете редактировать свои сообщения
    Вы не можете удалять свои сообщения
    Вы не можете голосовать в опросах
    Вы не можете прикреплять файлы к сообщениям
    Вы не можете скачивать файлы