BitTorrentTracker PerecTracker.org
BitTorrentTracker PerecTracker.org
    
Регистрация  ·  Вход
 
 · 
Забыли пароль?

  • Петух (Хангельды Агаханов, Ниссон Зелеранский) [1965 г., комедия, VHSRip]

    Ответить на тему
     
    Автор Сообщение

    Light

    Создавать темы 28-Апр-2015 15:00

           

    [Цитировать]

    ПетухГод выпуска: 1965.
    Жанр: комедия.
    Продолжительность: 01:18:25.
    Режиссеры: Хангельды Агаханов, Ниссон Зелеранский.
    В ролях:
    Леонид Реутов, Варвара Сошальская, Л. Курбанмухамедова, Л. Блохин, Куллук Ходжаев, Айсалтан Бердыева, Ходжоу Аннадурдыев, Курбан Кельджаев, Сарры Каррыев, Михаил Кириллов, Вапа Мухамедов, Имамберды Суханов, Батыр Чарыев, Акмурад Бяшимов, Евгений Феофанов.
    Описание:
    Молодой инженер Чары Мурадов, талантливый боксер, направляется в колхоз для прохождения практики. В селе он знакомится с красавицей-трактористкой Айджан...
    Доп. информация:
    Качество изображения неважное. Другого в инете просто нет, поэтому имеем то, что имеем.
    Страна: СССР .
    Киностудия: Туркменфильм.
    Премьера: 20 июня 1966 года.
    Авторы сценария: Ниссон Зелеранский, Юрий Строев.
    Оператор: Владимир Мейбом.
    Композитор: Александр Зацепин.
    Текст песен: Леонид Дербенев.
    Художник: Георгий Колганов.

    Релиз

    Качество: VHSRip
    Формат: AVI
    Видео: 640x400 (1.60:1), 25 fps, XviD MPEG-4 ~1111 kbps avg, 0.17 bit/pixel
    Аудио: 44.100 kHz, MPEG Layer 3, 2 ch, ~128.00 kbps avg

    Отчет MI

    General
    Complete name : Petux.1965.XviD.VHSRip.fenixclub.avi
    Format : AVI
    Format/Info : Audio Video Interleave
    File size : 701 MiB
    Duration : 1h 18mn
    Overall bit rate : 1 250 Kbps
    Writing application : VirtualDubModRus 1.5.10.2 (build 2542/release)
    Writing library : VirtualDub build 32842/release
    Video
    ID : 0
    Format : MPEG-4 Visual
    Format profile : Advanced Simple@L5
    Format settings, BVOP : 2
    Format settings, QPel : No
    Format settings, GMC : No warppoints
    Format settings, Matrix : Default (H.263)
    Muxing mode : Packed bitstream
    Codec ID : XVID
    Codec ID/Hint : XviD
    Duration : 1h 18mn
    Bit rate : 1 112 Kbps
    Width : 640 pixels
    Height : 400 pixels
    Display aspect ratio : 16:10
    Frame rate : 25.000 fps
    Color space : YUV
    Chroma subsampling : 4:2:0
    Bit depth : 8 bits
    Scan type : Progressive
    Compression mode : Lossy
    Bits/(Pixel*Frame) : 0.174
    Stream size : 624 MiB (89%)
    Writing library : XviD 73
    Audio
    ID : 1
    Format : MPEG Audio
    Format version : Version 1
    Format profile : Layer 3
    Mode : Joint stereo
    Mode extension : MS Stereo
    Codec ID : 55
    Codec ID/Hint : MP3
    Duration : 1h 18mn
    Bit rate mode : Constant
    Bit rate : 128 Kbps
    Channel(s) : 2 channels
    Sampling rate : 44.1 KHz
    Compression mode : Lossy
    Stream size : 71.8 MiB (10%)
    Alignment : Split accross interleaves
    Interleave, duration : 40 ms (1.00 video frame)
    Interleave, preload duratio : 500 ms.
    Скриншоты

    Альтернативный хост

    Скачать .torrent

    Скачать торрент-файл бесплатно и на максимальной скорости!

    Как скачивать? · Что такое торрент? · Рейтинг и ограничения

    !ВНИМАНИЕ!
    Сайт не распространяет и не хранит электронные версии произведений, а занимается лишь лишь предоставлением доступа к создаваемому пользователями каталогу ссылок на торрент-файлы, которые содержат только списки хеш-сумм, убедительная просьба с жалобами обращаться напрямую к пользователю. Файлы для обмена на трекере предоставлены пользователями сайта, и администрация не несёт ответственности за их содержание. Просьба не заливать файлы, защищенные авторскими правами, а также файлы нелегального содержания!


    _________________
    [Профиль] [ЛС]
    Показать сообщения:    
    Ответить на тему

    Текущее время: Сегодня, в 00:04

    Часовой пояс: GMT + 2



    Вы не можете начинать темы
    Вы не можете отвечать на сообщения
    Вы не можете редактировать свои сообщения
    Вы не можете удалять свои сообщения
    Вы не можете голосовать в опросах
    Вы не можете прикреплять файлы к сообщениям
    Вы не можете скачивать файлы