BitTorrentTracker PerecTracker.org
BitTorrentTracker PerecTracker.org
    
Регистрация  ·  Вход
 
 · 
Забыли пароль?

  • Первый снег / La prima neve (Андреа Сегре / Andrea Segre) [2013, Италия, драма, DVDRip-AVC] VO + Sub Rus + Original Ita

    Ответить на тему
     
    Автор Сообщение

    Light

    Создавать темы 28-Апр-2015 10:48

           

    [Цитировать]

    Первый снег / La prima neve
    Страна: Италия
    Жанр: драма
    Год выпуска: 2013
    Продолжительность: 01:42:56
    Перевод: Одноголосый закадровый
    Cубтитры: русские, английские
    Оригинальная аудиодорожка: итальянский
    Режиссер: Андреа Сегре / Andrea Segre
    В ролях: Маттео Маркель / Matteo Marchel, Жан-Кристоф Фоли / Jean-Christophe Foly, Анита Каприоли / Anita Caprioli, Джузеппе Баттистон / Giuseppe Battiston, Петер Миттерруцнер / Peter Mitterrutzner, Паоло Пьеробон / Paolo Pierobon, Sadia Afzal, Леонардо Паоли / Leonardo Paoli, Лоренцо Пинтарелли / Lorenzo Pintarelli, Роберто Читран / Roberto Citran, Андреа Пеннакки / Andrea Pennacchi
    Описание: В 2011 году тысячи беженцев из охваченной гражданской войной Ливии оказались в Италии и были распределены правительством по разным регионам. Местом действия этого фильма стал регион Трентино — в местную деревушку, основанную когда-то немецкими иммигрантами, вместе с дочерью-младенцем угодил потерявший жену африканец Дани. На фоне дивных альпийских пейзажей разворачивается история его дружбы со стариком-лесником Пьетро и его шкодливым внуком, белокурым Микеле, упрямым пацаном, предпочитающем лес и аккордеон школе…
    Сэмпл: http://multi-up.com/1045889
    Качество видео: DVDRip-AVC
    Формат видео: MKV
    Видео: AVC at 2150 Кбит/сек: 718 x 436 (2.349) at 25.000 fps
    Аудио 1: AC-3 at 224 Кбит/сек : 2 канала, 48,0 КГц Language: ru
    Аудио 2: AC-3 at 448 Кбит/сек : 6 каналов, 48,0 КГц Language: it
    Формат субтитров: softsub (SRT)
    Доп. информация о субтитрах: Русские внешние (Thoma_), английские (YRR)

    MediaInfo

    Общее
    Уникальный идентификатор : 216654687869134331308535094275501200900 (0xA2FE2CD315CB8CE4AC1E5C345FC81604)
    Полное имя : F:\С моей озвучкой\Первый снег\La prima neve (IT 2013) (1).mkv
    Формат : Matroska
    Версия формата : Version 4 / Version 2
    Размер файла : 2,07 Гбайт
    Продолжительность : 1 ч. 42 м.
    Общий поток : 2879 Кбит/сек
    Дата кодирования : UTC 2015-04-27 20:02:52
    Программа кодирования : mkvmerge v6.1.0 ('Old Devil') built on Mar 4 2013 09:10:42
    Библиотека кодирования : libebml v1.3.0 + libmatroska v1.4.0
    Видео
    Идентификатор : 1
    Формат : AVC
    Формат/Информация : Advanced Video Codec
    Профиль формата : Main@L4.0
    Параметр CABAC формата : Да
    Параметр ReFrames формата : 4 кадра
    Идентификатор кодека : V_MPEG4/ISO/AVC
    Продолжительность : 1 ч. 42 м.
    Битрейт : 2150 Кбит/сек
    Ширина : 718 пикселей
    Высота : 436 пикселей
    Соотношение сторон : 2,35:1
    Режим частоты кадров : Постоянный
    Частота кадров : 25,000 кадров/сек
    Цветовое пространство : YUV
    Субдискретизация насыщенности : 4:2:0
    Битовая глубина : 8 бит
    Тип развёртки : Прогрессивная
    Бит/(Пиксели*Кадры) : 0.275
    Размер потока : 1,55 Гбайт (75%)
    Библиотека кодирования : x264 core 142 r2479 dd79a61
    Настройки программы : cabac=1 / ref=1 / deblock=1:-1:-1 / analyse=0x1:0x111 / me=hex / subme=2 / psy=1 / psy_rd=1.00:0.15 / mixed_ref=0 / me_range=16 / chroma_me=1 / trellis=0 / 8x8dct=0 / cqm=0 / deadzone=21,11 / fast_pskip=1 / chroma_qp_offset=0 / threads=12 / lookahead_threads=3 / sliced_threads=0 / nr=0 / decimate=1 / interlaced=0 / bluray_compat=0 / constrained_intra=0 / bframes=3 / b_pyramid=2 / b_adapt=1 / b_bias=0 / direct=1 / weightb=1 / open_gop=0 / weightp=1 / keyint=250 / keyint_min=25 / scenecut=40 / intra_refresh=0 / rc_lookahead=10 / rc=crf / mbtree=1 / crf=16.0 / qcomp=0.60 / qpmin=0 / qpmax=69 / qpstep=4 / vbv_maxrate=20000 / vbv_bufsize=25000 / crf_max=0.0 / nal_hrd=none / filler=0 / ip_ratio=1.40 / aq=1:1.00
    Default : Да
    Forced : Нет
    Основные цвета : BT.601 PAL
    Характеристики трансфера : BT.709
    Коэффициенты матрицы : BT.601
    DURATION : 01:42:56.400000000
    NUMBER_OF_FRAMES : 154410
    NUMBER_OF_BYTES : 1702416610
    _STATISTICS_WRITING_APP : mkvmerge v7.6.0 ('Garden of Dreams') 64bit built on Feb 8 2015 13:04:34
    _STATISTICS_WRITING_DATE_UTC : 2020-10-20 18:11:16
    _STATISTICS_TAGS : BPS DURATION NUMBER_OF_FRAMES NUMBER_OF_BYTES
    Аудио #1
    Идентификатор : 2
    Формат : AC-3
    Формат/Информация : Audio Coding 3
    Расширение режима : CM (complete main)
    Параметр Endianness формата : Big
    Идентификатор кодека : A_AC3
    Продолжительность : 1 ч. 42 м.
    Вид битрейта : Постоянный
    Битрейт : 224 Кбит/сек
    Каналы : 2 канала
    Расположение каналов : Front: L R
    Частота : 48,0 КГц
    Битовая глубина : 16 бит
    Метод сжатия : С потерями
    Задержка видео : -80 мс.
    Размер потока : 165 Мбайт (8%)
    Язык : Russian
    Default : Нет
    Forced : Нет
    DURATION : 01:42:56.352000000
    NUMBER_OF_FRAMES : 193012
    NUMBER_OF_BYTES : 345877504
    _STATISTICS_WRITING_APP : mkvmerge v7.6.0 ('Garden of Dreams') 64bit built on Feb 8 2015 13:04:34
    _STATISTICS_WRITING_DATE_UTC : 2020-10-20 18:11:16
    _STATISTICS_TAGS : BPS DURATION NUMBER_OF_FRAMES NUMBER_OF_BYTES
    Аудио #2
    Идентификатор : 3
    Формат : AC-3
    Формат/Информация : Audio Coding 3
    Расширение режима : CM (complete main)
    Параметр Endianness формата : Big
    Идентификатор кодека : A_AC3
    Продолжительность : 1 ч. 42 м.
    Вид битрейта : Постоянный
    Битрейт : 448 Кбит/сек
    Каналы : 6 каналов
    Расположение каналов : Front: L C R, Side: L R, LFE
    Частота : 48,0 КГц
    Битовая глубина : 16 бит
    Метод сжатия : С потерями
    Размер потока : 330 Мбайт (16%)
    Язык : Italian
    Default : Нет
    Forced : Нет
    Меню
    00:00:00.000 : :Chapter 1
    00:09:27.120 : :Chapter 2
    00:14:11.920 : :Chapter 3
    00:17:16.880 : :Chapter 4
    00:27:13.520 : :Chapter 5
    00:31:39.000 : :Chapter 6
    00:35:11.840 : :Chapter 7
    00:40:05.680 : :Chapter 8
    00:46:50.080 : :Chapter 9
    00:50:37.040 : :Chapter 10
    00:55:42.360 : :Chapter 11
    01:00:47.240 : :Chapter 12
    01:06:09.520 : :Chapter 13
    01:12:15.640 : :Chapter 14
    01:19:01.400 : :Chapter 15
    01:24:53.320 : :Chapter 16
    01:29:42.760 : :Chapter 17
    01:39:26.320 : :Chapter 18

    Скриншоты

    Скачать .torrent

    Скачать торрент-файл бесплатно и на максимальной скорости!

    Как скачивать? · Что такое торрент? · Рейтинг и ограничения

    !ВНИМАНИЕ!
    Сайт не распространяет и не хранит электронные версии произведений, а занимается лишь лишь предоставлением доступа к создаваемому пользователями каталогу ссылок на торрент-файлы, которые содержат только списки хеш-сумм, убедительная просьба с жалобами обращаться напрямую к пользователю. Файлы для обмена на трекере предоставлены пользователями сайта, и администрация не несёт ответственности за их содержание. Просьба не заливать файлы, защищенные авторскими правами, а также файлы нелегального содержания!


    _________________
    [Профиль] [ЛС]
    Показать сообщения:    
    Ответить на тему

    Текущее время: Сегодня, в 10:33

    Часовой пояс: GMT + 2



    Вы не можете начинать темы
    Вы не можете отвечать на сообщения
    Вы не можете редактировать свои сообщения
    Вы не можете удалять свои сообщения
    Вы не можете голосовать в опросах
    Вы не можете прикреплять файлы к сообщениям
    Вы не можете скачивать файлы