BitTorrentTracker PerecTracker.org
BitTorrentTracker PerecTracker.org
    
Регистрация  ·  Вход
 
 · 
Забыли пароль?

  • Альфа и Омега: Клыкастая братва / Alpha and Omega (Энтони Белл / Anthony Bell, Бен Глюк / Ben Gluck) [2010, мультфильм, приключения, комедия, HDRip] Dub

    Ответить на тему
     
    Автор Сообщение

    rechyn

    Создавать темы 27-Апр-2015 22:00

           

    [Цитировать]

    Альфа и Омега: Клыкастая братва / Alpha and Omega
    Страна: США, Индия
    Жанр: мультфильм, приключения, комедия
    Продолжительность: 01:27:55
    Год выпуска: 2010
    Перевод: Профессиональный (дублированный) - Пифагор
    Русские субтитры: нет
    Режиссёр: Энтони Белл, Бен Глюк / Anthony Bell, Ben Gluck
    Описание: Мультяшное воплощение истории о Ромео и Джульетте, с новыми нюансами и деталями непременно понравится и взрослым и детям. Издавна в волчьих стаях почитается древняя традиция: все ее члены делятся на две группы - Альфа и Омега. Первые - отважные и сильные волки, охотники и лидеры. Вторые - весельчаки, всегда забавные и смешные, умеющие перевести самый сложный конфликт в шутку. Браки в стаях заключаются только между волками одной группы. Неунывающий Омега по имени Хамфри влюбляется в дочь вожака стаи Кейт, прирожденную Альфу... И вот судьба подбрасывает ему неплохой шанс - работники заповедника отправляют их в Айдахо. Волку и волчице придётся сплотиться, для того, чтобы вернуться на свою родину...- | Сэмпл | Совместный релиз:
    и -Качество: HDRip | исх. [ Alpha and Omega.1080p BDRip. HDclub]
    Формат: AVI
    Видео: 656x368 (1.78:1), 23.976 fps, XviD ~1047 kbps, 0.18 bit/pixel
    Аудио: 48 kHz, MP3, 2 ch, ~128.00 kbps
    Субтитры: нет

    MediaInfo

    GeneralComplete name : Alpha.and.Omega.2010.HDRip.Rus_746_Olu6ka.aviFormat : AVIFormat/Info : Audio Video InterleaveFile size : 745 MiBDuration : 1h 27mnOverall bit rate : 1 185 KbpsWriting application : VirtualDubModRus 1.5.10.2 (build 2542/release)Writing library : VirtualDubMod build 2542/release
    VideoID : 0Format : MPEG-4 VisualFormat profile : Advanced Simple@L5Format settings, BVOP : 1Format settings, QPel : NoFormat settings, GMC : No warppointsFormat settings, Matrix : CustomCodec ID : XVIDCodec ID/Hint : XviDDuration : 1h 27mnBit rate : 1 048 KbpsWidth : 656 pixelsHeight : 368 pixelsDisplay aspect ratio : 16:9Frame rate : 23.976 fpsColor space : YUVChroma subsampling : 4:2:0Bit depth : 8 bitsScan type : ProgressiveCompression mode : LossyBits/(Pixel*Frame) : 0.181Stream size : 659 MiB (88%)Writing library : XviD 73
    AudioID : 1Format : MPEG AudioFormat version : Version 1Format profile : Layer 3Mode : Joint stereoMode extension : MS StereoCodec ID : 55Codec ID/Hint : MP3Duration : 1h 27mnBit rate mode : ConstantBit rate : 128 KbpsChannel count : 2 channelsSampling rate : 48.0 KHzCompression mode : LossyStream size : 80.5 MiB (11%)Alignment : Aligned on interleavesInterleave, duration : 42 ms (1.00 video frame)Interleave, preload duration : 504 ms

    Скриншоты

    Дополнительная информация


    Роли озвучивают
    Хайден Панеттьери — Кейт, альфа-волчица
    Джастин Лонг — Хамфри, омега-волк
    Дэннис Хоппер — Тони, вожак Восточной стаи
    Кристина Риччи — Лили, сестра Кейт, омега
    Ларри Миллер - Марсель
    Дэнни Гловер — Уинстон, вожак Западной стаи, отец Кейт и Лили
    Кристин Лэйкин — Ребе
    Викки Льюис — Дарла
    Эрик Прайс — Алан
    Крис Кармак — Гарт, альфа-волк, сын Тони
    Дубляж
    Сергей Лазарев — Хамфри, омега-волк
    Лера Кудрявцева — Кейт, альфа-волчица
    Игорь Старосельцев — Тони, вожак Восточной стаи
    Лина Иванова — Лили, сестра Кейт, омега
    Василий Бочкарев — Уинстон, вожак Западной стаи, отец Кейт и Лили
    Александр Клюквин — Марсель
    Александр Гаврилин — Гарт, альфа-волк, сын Тони
    Никита Прозоровский — Пэдди
    Скачать .torrent

    Скачать торрент-файл бесплатно и на максимальной скорости!

    Как скачивать? · Что такое торрент? · Рейтинг и ограничения

    !ВНИМАНИЕ!
    Сайт не распространяет и не хранит электронные версии произведений, а занимается лишь лишь предоставлением доступа к создаваемому пользователями каталогу ссылок на торрент-файлы, которые содержат только списки хеш-сумм, убедительная просьба с жалобами обращаться напрямую к пользователю. Файлы для обмена на трекере предоставлены пользователями сайта, и администрация не несёт ответственности за их содержание. Просьба не заливать файлы, защищенные авторскими правами, а также файлы нелегального содержания!


    _________________
    [Профиль] [ЛС]
    Показать сообщения:    
    Ответить на тему

    Текущее время: Сегодня, в 08:53

    Часовой пояс: GMT + 2



    Вы не можете начинать темы
    Вы не можете отвечать на сообщения
    Вы не можете редактировать свои сообщения
    Вы не можете удалять свои сообщения
    Вы не можете голосовать в опросах
    Вы не можете прикреплять файлы к сообщениям
    Вы не можете скачивать файлы