Register  ·  Log in
Forgot password?

  • Хижина в лесу / The Cabin in the Woods (Дрю Годдард / Drew Goddard) [2011, США, ужасы, триллер, детектив, HDRip] AVO (Гаврилов)

    Reply to topic
    Author Message


    Post 27-Apr-2015 23:00



    Хижина в лесу / The Cabin in the Woods
    Страна: США
    Жанр: ужасы, триллер, детектив
    Год выпуска: 2011
    Продолжительность: 01:35:00
    Перевод: Авторский (одноголосый закадровый) Гаврилов
    Cубтитры: нет
    Режиссер: Дрю Годдард / Drew Goddard
    В ролях: Кристин Коннолли, Крис Хемсворт, Ричард Дженкинс, Брэдли Уитфорд, Джесси Уильямс, Фрэн Кранц, Анна Хатчисон, Брайан Дж. Уайт, Эми Эккер, Джоделль Ферланд
    Описание: Шумная компания из пяти друзей сбегает на уик-энд подебоширить в изолированную от всего мира деревенскую хижину. Звучит знакомо? Ну так вы и не представляете, что вас ждёт на самом деле.
    Доп. информация:
    Видеоряд с раздачи intellect
    Дорожка Гаврилова предоставлена Mixa_12345_mixa.
    Качество видео: HDRip([url=Отсюда[/url])
    Формат видео: AVI
    Видео: XviD; 720x304 (2.37:1), 23.976 fps, 1735 kbps, 0.33 bit/pixel
    Аудио: AC3; 6 ch; 48 kHz; 448 kbps


    Complete name : N:\
    Format : AVI
    Format/Info : Audio Video Interleave
    File size : 1.45 GiB
    Duration : 1h 35mn
    Overall bit rate : 2 192 Kbps
    Movie name : Хижина в лесу
    Director : Doctor_Joker & romero007
    Subject : Хижина в лесу
    Writing application : VirtualDubMod (build 2540/release)
    Writing library : VirtualDubMod build 2540/release
    ID : 0
    Format : MPEG-4 Visual
    Format profile : Advanced Simple@L5
    Format settings, BVOP : 2
    Format settings, QPel : No
    Format settings, GMC : No warppoints
    Format settings, Matrix : Default (MPEG)
    Codec ID : XVID
    Codec ID/Hint : XviD
    Duration : 1h 35mn
    Bit rate : 1 735 Kbps
    Width : 720 pixels
    Height : 304 pixels
    Display aspect ratio : 2.35:1
    Frame rate : 23.976 fps
    Color space : YUV
    Chroma subsampling : 4:2:0
    Bit depth : 8 bits
    Scan type : Progressive
    Compression mode : Lossy
    Bits/(Pixel*Frame) : 0.331
    Stream size : 1.15 GiB (79%)
    Writing library : XviD 1.2.1 (UTC 2008-12-04)
    ID : 1
    Format : AC-3
    Format/Info : Audio Coding 3
    Mode extension : CM (complete main)
    Format settings, Endianness : Big
    Codec ID : 2000
    Duration : 1h 35mn
    Bit rate mode : Constant
    Bit rate : 448 Kbps
    Channel count : 6 channels
    Channel positions : Front: L C R, Side: L R, LFE
    Sampling rate : 48.0 KHz
    Bit depth : 16 bits
    Compression mode : Lossy
    Stream size : 304 MiB (20%)
    Alignment : Split accross interleaves
    Interleave, duration : 42 ms (1.00 video frame)
    Interleave, preload duration : 500 ms

    Скриншот c названием фильма


    Download .torrent

    Download free and at maximum speed!

    How to Download? · What is a torrent? · Ratings and Limitations

    The site does not extend and does not store electronic(digital) versions of products, and only gives access to a reference catalogue created by users on torrent-files which contain only lists of the hash-sums, the earnest entreaty, with complaints(abuse) to access directly to the user. Files for an exchange on tracker are given by users of a site, and the administration does not bear the responsibility for their maintenance. The request to not fill in the files protected by copyrights, and also files of the illegal maintenance!

    [Profile] [PM]
    Display posts from previous:    
    Reply to topic

    The time now is: Today 14:38

    All times are GMT + 3 Hours

    You cannot post new topics in this forum
    You cannot reply to topics in this forum
    You cannot edit your posts in this forum
    You cannot delete your posts in this forum
    You cannot vote in polls in this forum
    You cannot attach files in this forum
    You cannot download files in this forum