BitTorrentTracker PerecTracker.org
BitTorrentTracker PerecTracker.org
    
Регистрация  ·  Вход
 
 · 
Забыли пароль?

  • Хижина в лесу / The Cabin in the Woods (Дрю Годдард / Drew Goddard) [2011, США, ужасы, триллер, детектив, HDRip] AVO (Гаврилов)

    Ответить на тему
     
    Автор Сообщение

    Light

    Создавать темы 27-Апр-2015 22:00

           

    [Цитировать]

    Хижина в лесу / The Cabin in the Woods
    Страна: США
    Жанр: ужасы, триллер, детектив
    Год выпуска: 2011
    Продолжительность: 01:35:00
    Перевод: Авторский (одноголосый закадровый) Гаврилов
    Cубтитры: нет
    Режиссер: Дрю Годдард / Drew Goddard
    В ролях: Кристин Коннолли, Крис Хемсворт, Ричард Дженкинс, Брэдли Уитфорд, Джесси Уильямс, Фрэн Кранц, Анна Хатчисон, Брайан Дж. Уайт, Эми Эккер, Джоделль Ферланд
    Описание: Шумная компания из пяти друзей сбегает на уик-энд подебоширить в изолированную от всего мира деревенскую хижину. Звучит знакомо? Ну так вы и не представляете, что вас ждёт на самом деле.
    Доп. информация:
    Видеоряд с раздачи intellect
    Дорожка Гаврилова предоставлена Mixa_12345_mixa.
    Сэмпл: http://sendfile.su/1112449
    Качество видео: HDRip([url=http://perectracker.org/viewtopic.php?t=4154816Отсюда[/url])
    Формат видео: AVI
    Видео: XviD; 720x304 (2.37:1), 23.976 fps, 1735 kbps, 0.33 bit/pixel
    Аудио: AC3; 6 ch; 48 kHz; 448 kbps

    MediaInfo

    General
    Complete name : N:\The.Cabin.in.the.Woods.2011.HDRip.Gavrilov.avi
    Format : AVI
    Format/Info : Audio Video Interleave
    File size : 1.45 GiB
    Duration : 1h 35mn
    Overall bit rate : 2 192 Kbps
    Movie name : Хижина в лесу
    Director : Doctor_Joker & romero007
    Subject : Хижина в лесу
    Writing application : VirtualDubMod 1.5.10.2 (build 2540/release)
    Writing library : VirtualDubMod build 2540/release
    Video
    ID : 0
    Format : MPEG-4 Visual
    Format profile : Advanced Simple@L5
    Format settings, BVOP : 2
    Format settings, QPel : No
    Format settings, GMC : No warppoints
    Format settings, Matrix : Default (MPEG)
    Codec ID : XVID
    Codec ID/Hint : XviD
    Duration : 1h 35mn
    Bit rate : 1 735 Kbps
    Width : 720 pixels
    Height : 304 pixels
    Display aspect ratio : 2.35:1
    Frame rate : 23.976 fps
    Color space : YUV
    Chroma subsampling : 4:2:0
    Bit depth : 8 bits
    Scan type : Progressive
    Compression mode : Lossy
    Bits/(Pixel*Frame) : 0.331
    Stream size : 1.15 GiB (79%)
    Writing library : XviD 1.2.1 (UTC 2008-12-04)
    Audio
    ID : 1
    Format : AC-3
    Format/Info : Audio Coding 3
    Mode extension : CM (complete main)
    Format settings, Endianness : Big
    Codec ID : 2000
    Duration : 1h 35mn
    Bit rate mode : Constant
    Bit rate : 448 Kbps
    Channel count : 6 channels
    Channel positions : Front: L C R, Side: L R, LFE
    Sampling rate : 48.0 KHz
    Bit depth : 16 bits
    Compression mode : Lossy
    Stream size : 304 MiB (20%)
    Alignment : Split accross interleaves
    Interleave, duration : 42 ms (1.00 video frame)
    Interleave, preload duration : 500 ms

    Скриншот c названием фильма

    Скриншоты

    Скачать .torrent

    Скачать торрент-файл бесплатно и на максимальной скорости!

    Как скачивать? · Что такое торрент? · Рейтинг и ограничения

    !ВНИМАНИЕ!
    Сайт не распространяет и не хранит электронные версии произведений, а занимается лишь лишь предоставлением доступа к создаваемому пользователями каталогу ссылок на торрент-файлы, которые содержат только списки хеш-сумм, убедительная просьба с жалобами обращаться напрямую к пользователю. Файлы для обмена на трекере предоставлены пользователями сайта, и администрация не несёт ответственности за их содержание. Просьба не заливать файлы, защищенные авторскими правами, а также файлы нелегального содержания!


    _________________
    [Профиль] [ЛС]
    Показать сообщения:    
    Ответить на тему

    Текущее время: Сегодня, в 02:02

    Часовой пояс: GMT + 2



    Вы не можете начинать темы
    Вы не можете отвечать на сообщения
    Вы не можете редактировать свои сообщения
    Вы не можете удалять свои сообщения
    Вы не можете голосовать в опросах
    Вы не можете прикреплять файлы к сообщениям
    Вы не можете скачивать файлы