BitTorrentTracker PerecTracker.org
BitTorrentTracker PerecTracker.org
    
Регистрация  ·  Вход
 
 · 
Забыли пароль?

  • Привет, призрак / Hello Ghost (Ким Ен-так / Kim Yeong-tak) [2010 г., комедия, мистика, драма, BDRip]

    Ответить на тему
     
    Автор Сообщение

    HAwkey

    Создавать темы 27-Апр-2015 20:25

           

    [Цитировать]

    Привет, призрак / Hello Ghost-Год Выпуска: 2010
    Страна: Южная Корея
    Жанр: комедия, мистика, драма
    Продолжительность: 01:51:07
    Перевод: Авторский (одноголосый закадровый) @PD
    Субтитры: нет
    Режиссер: Ким Ен-так / Kim Yeong-tak
    Продюссер: Мун-Су Чхве, Сон-Пин Лим, Вуди Ким
    Сценарий: Ён-Так Ким

    В ролях: Ча Тай-хьон / Cha Tae-hyeon, Канг Е-вон / Kang Ye-won, Ли Мун-су / Lee Moon-soo, Ко Чан-сок / Ko Chang-seok
    Описание: После того, как Канг Санг Ман решил в очередной раз свести счеты, с опостылевшей ему до невозможности жизнью, он вдруг чудесным образом обретает способность видеть души умерших, говоря попросту, призраков. Не на шутку перепугавшись, свалившемуся ему на голову "счастью" Санг Ман отправляется к медиуму-экстрасенсу с просьбой освободить его от незваных гостей. Однако тот объяснил ему, что не в человеческих силах отправить мертвые души восвояси, так как призраки могут покинуть его только по собственной воле. Для чего Санг Ман должен выполнить их самые заветные желания...
    Качество: BDRip
    Формат: MKV
    Видео кодек: H.264
    Аудио кодек: AC3
    Видео: 1280x720p, 29,970 fps, 6000 Kbps, 0.217 bit/pixel
    Аудио: AC3 Dolby Digital, 48 kHz, 6 ch, 448 Kbps, rus
    Аудио 2: MP3, 48 kHz, 2 ch, 128 Kbps, Kor
    Релиз от: HAwkey

    Скриншоты

    MediaInfo

    Общее
    Уникальный идентификатор : 223542001994644534947884400333638621995 (0xA82C9FA0C64C3363AFBB09099A705B2B)
    Полное имя : H:\Корея\Залить\Hello.Ghost\Hello.Ghost.2010.720P.HDRip.x264-Death (1).mkv
    Формат : Matroska
    Версия формата : Version 4 / Version 2
    Размер файла : 5,06 Гбайт
    Продолжительность : 1 ч. 51 м.
    Общий поток : 6525 Кбит/сек
    Дата кодирования : UTC 2015-04-26 13:36:33
    Программа кодирования : mkvmerge v6.9.1 ('Blue Panther') 32bit built on Apr 18 2014 18:15:44
    Библиотека кодирования : Kirara Encoder
    Видео
    Идентификатор : 1
    Формат : AVC
    Формат/Информация : Advanced Video Codec
    Профиль формата : High@L3.1
    Параметр CABAC формата : Нет
    Параметр ReFrames формата : 1 кадр
    Параметр GOP формата : M=1, N=12
    Идентификатор кодека : V_MPEG4/ISO/AVC
    Продолжительность : 1 ч. 51 м.
    Битрейт : 6000 Кбит/сек
    Ширина : 1280 пикселей
    Высота : 720 пикселей
    Соотношение сторон : 16:9
    Режим частоты кадров : Постоянный
    Частота кадров : 29,970 кадров/сек
    Цветовое пространство : YUV
    Субдискретизация насыщенности : 4:2:0
    Битовая глубина : 8 бит
    Тип развёртки : Прогрессивная
    Бит/(Пиксели*Кадры) : 0.217
    Размер потока : 4,52 Гбайт (89%)
    Библиотека кодирования : x264 core 107
    Настройки программы : cabac=0 / ref=1 / deblock=1:-1:-1 / analyse=0x3:0x113 / me=hex / subme=7 / psy=1 / psy_rd=1.00:0.00 / mixed_ref=0 / me_range=16 / chroma_me=1 / trellis=0 / 8x8dct=1 / cqm=0 / deadzone=21,11 / fast_pskip=1 / chroma_qp_offset=-2 / threads=8 / sliced_threads=0 / nr=0 / decimate=1 / interlaced=0 / constrained_intra=0 / bframes=0 / weightp=2 / keyint=12 / keyint_min=7 / scenecut=40 / intra_refresh=0 / rc_lookahead=12 / rc=abr / mbtree=1 / bitrate=6000 / ratetol=1.0 / qcomp=0.60 / qpmin=10 / qpmax=51 / qpstep=4 / ip_ratio=1.40 / aq=1:1.00
    Default : Да
    Forced : Нет
    Аудио #1
    Идентификатор : 2
    Формат : AC-3
    Формат/Информация : Audio Coding 3
    Расширение режима : CM (complete main)
    Параметр Endianness формата : Big
    Идентификатор кодека : A_AC3
    Продолжительность : 1 ч. 51 м.
    Вид битрейта : Постоянный
    Битрейт : 448 Кбит/сек
    Каналы : 6 каналов
    Расположение каналов : Front: L C R, Side: L R, LFE
    Частота : 48,0 КГц
    Битовая глубина : 16 бит
    Метод сжатия : С потерями
    Задержка видео : 4 мс.
    Размер потока : 356 Мбайт (7%)
    Заголовок : @PD
    Язык : Russian
    Default : Да
    Forced : Нет
    Аудио #2
    Идентификатор : 3
    Формат : MPEG Audio
    Версия формата : Version 1
    Профиль формата : Layer 2
    Идентификатор кодека : A_MPEG/L2
    Идентификатор кодека/Подсказка : MP2
    Продолжительность : 1 ч. 51 м.
    Вид битрейта : Постоянный
    Битрейт : 128 Кбит/сек
    Каналы : 2 канала
    Частота : 48,0 КГц
    Метод сжатия : С потерями
    Размер потока : 102 Мбайт (2%)
    Язык : Korean
    Default : Нет
    Forced : Нет
    Скачать .torrent

    Скачать торрент-файл бесплатно и на максимальной скорости!

    Как скачивать? · Что такое торрент? · Рейтинг и ограничения

    !ВНИМАНИЕ!
    Сайт не распространяет и не хранит электронные версии произведений, а занимается лишь лишь предоставлением доступа к создаваемому пользователями каталогу ссылок на торрент-файлы, которые содержат только списки хеш-сумм, убедительная просьба с жалобами обращаться напрямую к пользователю. Файлы для обмена на трекере предоставлены пользователями сайта, и администрация не несёт ответственности за их содержание. Просьба не заливать файлы, защищенные авторскими правами, а также файлы нелегального содержания!

    [Профиль] [ЛС]
    Показать сообщения:    
    Ответить на тему

    Текущее время: Сегодня, в 16:37

    Часовой пояс: GMT + 2



    Вы не можете начинать темы
    Вы не можете отвечать на сообщения
    Вы не можете редактировать свои сообщения
    Вы не можете удалять свои сообщения
    Вы не можете голосовать в опросах
    Вы не можете прикреплять файлы к сообщениям
    Вы не можете скачивать файлы