BitTorrentTracker PerecTracker.org
BitTorrentTracker PerecTracker.org
    
Регистрация  ·  Вход
 
 · 
Забыли пароль?

  • Скалолаз / Cliffhanger (Ренни Харлин / Renny Harlin) [1993, Италия, Франция, США, боевик, триллер, приключения, BDRemux 1080p] [US Edition] 3х MVO + 2х DVO + 5х AVO + VO + Sub Rus, Eng + Original Eng

    Ответить на тему
     
    Автор Сообщение

    Flirldrerve

    Создавать темы 27-Апр-2015 17:48

           

    [Цитировать]

    Скалолаз / Cliffhanger / US Edition
    Страна: Италия, Франция, США
    Студия: Sony Pictures Home Entertainment
    Жанр: боевик, триллер, приключения
    Год выпуска: 1993
    Продолжительность: 01:52:42
    Перевод 1: Профессиональный (многоголосый закадровый) РТР
    Перевод 2: Профессиональный (многоголосый закадровый) ОРТ
    Перевод 3: Профессиональный (многоголосый закадровый) Премьер Видео Фильм
    Перевод 4: Профессиональный (двухголосый закадровый) R5 (Тwister)
    Перевод 5: Профессиональный (двухголосый закадровый) СТС
    Перевод 6: Авторский (одноголосый закадровый) Ю.Живов
    Перевод 7: Авторский (одноголосый закадровый) В.Горчаков
    Перевод 8: Авторский (одноголосый закадровый) А.Гаврилов (VHS)
    Перевод 9: Авторский (одноголосый закадровый) А.Гаврилов
    Перевод 10: Авторский (одноголосый закадровый) Л.Володарский
    Перевод 11: Одноголосый закадровый - неизвестный
    Перевод 12: Профессиональный (двухголосый закадровый) 2+2
    Cубтитры: русские, английские, французские
    Оригинальная аудиодорожка: английский
    Режиссер: Ренни Харлин / Renny Harlin
    В ролях: Сильвестр Сталлоне / Sylvester Stallone (Gabe Walker), Джон Литгоу / John Lithgow (Eric Qualen), Майкл Рукер / Michael Rooker (Hal Tucker), Джанин Тернер / Janine Turner (Jessie Deighan), Рекс Линн / Rex Linn (Richard Travers, Treasury Agent), Кэролайн Гудолл / Caroline Goodall (Kristel, Jetstar Pilot), Леон / Leon (Kynette), Крэйг Фэйрбрасс / Craig Fairbrass (Delmar), Грегори Скотт Камминс / Gregory Scott Cummins (Ryan), Дэнис Форест / Denis Forest (Heldon), Мишель Джойнер / Michelle Joyner (Sarah), Макс Перлих / Max Perlich (Evan)
    Описание: В горах после снежной лавины теряются 5 человек. На их поиски отправляется один из лучших альпинистов и горных проводников - Гейб Уокер. Неожиданно он понимает, что его специально заманили в горы для совершенно другого дела.
    Также становится ясно, что Гейб станет нежелательным свидетелем, от которого без раздумья «избавятся». Но свою жизнь он терять так просто не собирается и объявляет безжалостную войну банде вооруженных до зубов боевиков под предводительством международного террориста Эрика Куалена...
    Доп. информация: За помощь по работе с синхронизацией и монтажом Русских озвучек спасибо DreamWarrior
    За помощь при получении исходника фильма огромное спасибо sander996
    За дороги спасибо всем авторам раздач, с которых они были взяты!!
    В дорожке "Премьер Видео Фильм" есть вставки Гаврилова на пропущенных местах.
    Audio №6-9 были получены путем наложения чистого голоса на центральный канал оригинала, за них и украинскую дорожку спасибо djamb
    Сохранены оригинальные чаптеры.

    Сравнение с немецким BD: ТУТ
    Дополнительные / бонусные материалы:

    скрытый текст

    "Скалолаз" - Фильм о Фильме(ENG) http://yadi.sk/d/FCJoV0aZEZVnv
    Сэмпл: http://yadi.sk/d/bn0GUr7vEUBJX
    Тип релиза: BDRemux 1080p (Cliffhanger.1993.1080p.US.BluRay.AVC.DTS-HD.MA.5.1)
    Контейнер: MKV
    Видео: 1920x1080 (16:9), 23.976 fps, MPEG-4 AVC, 29829 kbps
    Аудио 1: Russian: 48 kHz, AC3, 2.0 (L,R), ~192.00 kbps avg - РТР
    Аудио 2: Russian: 48 kHz, AC3, 2.0 (L,R), ~192.00 kbps avg - ОРТ
    Аудио 3: Russian: 48 kHz, AC3, 2.0 (L,R), ~192.00 kbps avg - Премьер Видео Фильм
    Аудио 4: Russian: 48 kHz, AC3, 3/2 (L,C,R,l,r) + LFE ch, ~448.00 kbps avg - R5 (Тwister)
    Аудио 5: Russian: 48 kHz, AC3, 2.0 (L,R), ~192.00 kbps avg - СТС
    Аудио 6: Russian: DTS-HD MA 5.1 / 48 kHz / 4382 kbps / 24-bit (DTS Core: 5.1 / 48 kHz / 1509 kbps / 24-bit) - Ю.Живов
    Аудио 7: Russian: DTS-HD MA 5.1 / 48 kHz / 4375 kbps / 24-bit (DTS Core: 5.1 / 48 kHz / 1509 kbps / 24-bit) - В.Горчаков
    Аудио 8: Russian: DTS-HD MA 5.1 / 48 kHz / 4375 kbps / 24-bit (DTS Core: 5.1 / 48 kHz / 1509 kbps / 24-bit) - А.Гаврилов(старый)
    Аудио 9: Russian: DTS-HD MA 5.1 / 48 kHz / 4379 kbps / 24-bit (DTS Core: 5.1 / 48 kHz / 1509 kbps / 24-bit) - А.Гаврилов
    Аудио 10: Russian: 48 kHz, AC3, 2.0 (L,R), ~192.00 kbps avg - Л.Володарский
    Аудио 11: Russian: 48 kHz, AC3, 2.0 (L,R), ~192.00 kbps avg - Неизвестный
    Аудио 11: Ukrainian: 48 kHz, AC3, 2.0 (L,R), ~192.00 kbps avg - ТК "2+2"
    Аудио 12: English: 48 kHz, AC3, 2.0 (L,R), ~192.00 kbps avg - Commentary with Director Renny Harlin and Sylvester Stallone
    Аудио 13: English: 48 kHz, AC3, 2.0 (L,R), ~192.00 kbps avg - Technical Crew Commentary
    Аудио 14: English: DTS-HD Master Audio, 4369 kbps 3/2 (L,C,R,l,r) + LFE ch, 48 kHz, 24-bit (DTS Core: 5.1 / 48 kHz / 1509 kbps / 24-bit)
    Формат субтитров: softsub (SRT)

    MediaInfo

    General
    Unique ID : 250656907654701980720851855763912985902 (0xBC92C3B12880136F8F69C78822A70D2E)
    Format : Matroska
    Format version : Version 4 / Version 2
    File size : 42.4 GiB
    Duration : 1h 52mn
    Overall bit rate mode : Variable
    Overall bit rate : 53.9 Mbps
    Movie name : Cliffhanger 1993 1080p x264-alrmothe
    Encoded date : UTC 2015-04-27 09:12:08
    Writing application : mkvmerge v7.8.0 ('River Man') 64bit built on Mar 27 2015 16:31:37
    Writing library : libebml v1.3.1 + libmatroska v1.4.2
    TITLE : Cliffhanger.1993.1080p.BluRay.DTS.x264-FANDANGO
    DURATION : 01:52:42.752000000
    NUMBER_OF_FRAMES : 211336
    NUMBER_OF_BYTES : 162306048
    _STATISTICS_WRITING_APP : mkvmerge v7.8.0 ('River Man') 64bit built on Mar 27 2015 16:31:37
    _STATISTICS_WRITING_DATE_UTC : 2015-04-27 09:12:08
    _STATISTICS_TAGS : BPS DURATION NUMBER_OF_FRAMES NUMBER_OF_BYTES
    Video #1
    ID : 1
    Format : AVC
    Format/Info : Advanced Video Codec
    Format profile : High@L4.1
    Format settings, CABAC : Yes
    Format settings, ReFrames : 2 frames
    Codec ID : V_MPEG4/ISO/AVC
    Duration : 1h 52mn
    Bit rate mode : Variable
    Width : 1 920 pixels
    Height : 1 080 pixels
    Display aspect ratio : 16:9
    Frame rate mode : Constant
    Frame rate : 23.976 fps
    Color space : YUV
    Chroma subsampling : 4:2:0
    Bit depth : 8 bits
    Scan type : Progressive
    Default : Yes
    Forced : No
    Audio #2
    ID : 2
    Format : AC-3
    Format/Info : Audio Coding 3
    Mode extension : CM (complete main)
    Format settings, Endianness : Big
    Codec ID : A_AC3
    Duration : 1h 52mn
    Bit rate mode : Constant
    Bit rate : 192 Kbps
    Channel count : 2 channels
    Channel positions : Front: L R
    Sampling rate : 48.0 KHz
    Bit depth : 16 bits
    Compression mode : Lossy
    Stream size : 155 MiB (0%)
    Title : РТР
    Language : Russian
    Default : Yes
    Forced : Yes
    Audio #3
    ID : 3
    Format : AC-3
    Format/Info : Audio Coding 3
    Mode extension : CM (complete main)
    Format settings, Endianness : Big
    Codec ID : A_AC3
    Duration : 1h 52mn
    Bit rate mode : Constant
    Bit rate : 192 Kbps
    Channel count : 2 channels
    Channel positions : Front: L R
    Sampling rate : 48.0 KHz
    Bit depth : 16 bits
    Compression mode : Lossy
    Stream size : 155 MiB (0%)
    Title : ОРТ
    Language : Russian
    Default : No
    Forced : No
    Audio #4
    ID : 4
    Format : AC-3
    Format/Info : Audio Coding 3
    Mode extension : CM (complete main)
    Format settings, Endianness : Big
    Codec ID : A_AC3
    Duration : 1h 52mn
    Bit rate mode : Constant
    Bit rate : 192 Kbps
    Channel count : 2 channels
    Channel positions : Front: L R
    Sampling rate : 48.0 KHz
    Bit depth : 16 bits
    Compression mode : Lossy
    Stream size : 155 MiB (0%)
    Title : Премьер
    Language : Russian
    Default : No
    Forced : No
    Audio #5
    ID : 5
    Format : AC-3
    Format/Info : Audio Coding 3
    Mode extension : CM (complete main)
    Format settings, Endianness : Big
    Codec ID : A_AC3
    Duration : 1h 52mn
    Bit rate mode : Constant
    Bit rate : 448 Kbps
    Channel count : 6 channels
    Channel positions : Front: L C R, Side: L R, LFE
    Sampling rate : 48.0 KHz
    Bit depth : 16 bits
    Compression mode : Lossy
    Stream size : 361 MiB (1%)
    Title : R5 (Twister)
    Language : Russian
    Default : No
    Forced : No
    Audio #6
    ID : 6
    Format : AC-3
    Format/Info : Audio Coding 3
    Mode extension : CM (complete main)
    Format settings, Endianness : Big
    Codec ID : A_AC3
    Duration : 1h 52mn
    Bit rate mode : Constant
    Bit rate : 192 Kbps
    Channel count : 2 channels
    Channel positions : Front: L R
    Sampling rate : 48.0 KHz
    Bit depth : 16 bits
    Compression mode : Lossy
    Stream size : 155 MiB (0%)
    Title : СТС
    Language : Russian
    Default : No
    Forced : No
    Audio #7
    ID : 7
    Format : DTS
    Format/Info : Digital Theater Systems
    Format profile : MA / Core
    Mode : 16
    Format settings, Endianness : Big
    Codec ID : A_DTS
    Duration : 1h 52mn
    Bit rate mode : Variable
    Bit rate : Unknown / 1 509 Kbps
    Channel count : 6 channels
    Channel positions : Front: L C R, Side: L R, LFE
    Sampling rate : 48.0 KHz
    Bit depth : 24 bits
    Compression mode : Lossless / Lossy
    Title : Ю. Живов
    Language : Russian
    Default : No
    Forced : No
    Audio #8
    ID : 8
    Format : DTS
    Format/Info : Digital Theater Systems
    Format profile : MA / Core
    Mode : 16
    Format settings, Endianness : Big
    Codec ID : A_DTS
    Duration : 1h 52mn
    Bit rate mode : Variable
    Bit rate : Unknown / 1 509 Kbps
    Channel count : 6 channels
    Channel positions : Front: L C R, Side: L R, LFE
    Sampling rate : 48.0 KHz
    Bit depth : 24 bits
    Compression mode : Lossless / Lossy
    Title : В. Горчаков
    Language : Russian
    Default : No
    Forced : No
    Audio #9
    ID : 9
    Format : DTS
    Format/Info : Digital Theater Systems
    Format profile : MA / Core
    Mode : 16
    Format settings, Endianness : Big
    Codec ID : A_DTS
    Duration : 1h 52mn
    Bit rate mode : Variable
    Bit rate : Unknown / 1 509 Kbps
    Channel count : 6 channels
    Channel positions : Front: L C R, Side: L R, LFE
    Sampling rate : 48.0 KHz
    Bit depth : 24 bits
    Compression mode : Lossless / Lossy
    Title : А.Гаврилов (старый)
    Language : Russian
    Default : No
    Forced : No
    Audio #10
    ID : 10
    Format : DTS
    Format/Info : Digital Theater Systems
    Format profile : MA / Core
    Mode : 16
    Format settings, Endianness : Big
    Codec ID : A_DTS
    Duration : 1h 52mn
    Bit rate mode : Variable
    Bit rate : Unknown / 1 509 Kbps
    Channel count : 6 channels
    Channel positions : Front: L C R, Side: L R, LFE
    Sampling rate : 48.0 KHz
    Bit depth : 24 bits
    Compression mode : Lossless / Lossy
    Title : А. Гаврилов (новый)
    Language : Russian
    Default : No
    Forced : No
    Audio #11
    ID : 11
    Format : AC-3
    Format/Info : Audio Coding 3
    Mode extension : CM (complete main)
    Format settings, Endianness : Big
    Codec ID : A_AC3
    Duration : 1h 52mn
    Bit rate mode : Constant
    Bit rate : 192 Kbps
    Channel count : 2 channels
    Channel positions : Front: L R
    Sampling rate : 48.0 KHz
    Bit depth : 16 bits
    Compression mode : Lossy
    Stream size : 155 MiB (0%)
    Title : Володарский
    Language : Russian
    Default : No
    Forced : No
    Audio #12
    ID : 12
    Format : AC-3
    Format/Info : Audio Coding 3
    Mode extension : CM (complete main)
    Format settings, Endianness : Big
    Codec ID : A_AC3
    Duration : 1h 52mn
    Bit rate mode : Constant
    Bit rate : 192 Kbps
    Channel count : 2 channels
    Channel positions : Front: L R
    Sampling rate : 48.0 KHz
    Bit depth : 16 bits
    Compression mode : Lossy
    Stream size : 155 MiB (0%)
    Title : Неизвестный
    Language : Russian
    Default : No
    Forced : No
    Audio #13
    ID : 13
    Format : AC-3
    Format/Info : Audio Coding 3
    Mode extension : CM (complete main)
    Format settings, Endianness : Big
    Codec ID : A_AC3
    Duration : 1h 52mn
    Bit rate mode : Constant
    Bit rate : 192 Kbps
    Channel count : 2 channels
    Channel positions : Front: L R
    Sampling rate : 48.0 KHz
    Bit depth : 16 bits
    Compression mode : Lossy
    Stream size : 155 MiB (0%)
    Title : ТК "2+2"
    Language : Ukrainian
    Default : No
    Forced : No
    Audio #14
    ID : 14
    Format : AC-3
    Format/Info : Audio Coding 3
    Mode extension : CM (complete main)
    Format settings, Endianness : Big
    Codec ID : A_AC3
    Duration : 1h 52mn
    Bit rate mode : Constant
    Bit rate : 192 Kbps
    Channel count : 2 channels
    Channel positions : Front: L R
    Sampling rate : 48.0 KHz
    Bit depth : 16 bits
    Compression mode : Lossy
    Stream size : 155 MiB (0%)
    Title : Commentary with Director Renny Harlin and Sylvester Stallone
    Language : English
    Default : No
    Forced : No
    Audio #15
    ID : 15
    Format : AC-3
    Format/Info : Audio Coding 3
    Format profile : Dolby Digital
    Mode extension : CM (complete main)
    Format settings, Endianness : Big
    Codec ID : A_AC3
    Duration : 1h 52mn
    Bit rate mode : Constant
    Bit rate : 192 Kbps
    Channel count : 2 channels
    Channel positions : Front: L R
    Sampling rate : 48.0 KHz
    Bit depth : 16 bits
    Compression mode : Lossy
    Stream size : 155 MiB (0%)
    Title : Technical Crew Commentary
    Language : English
    Default : No
    Forced : No
    Audio #16
    ID : 16
    Format : DTS
    Format/Info : Digital Theater Systems
    Format profile : MA / Core
    Mode : 16
    Format settings, Endianness : Big
    Codec ID : A_DTS
    Duration : 1h 52mn
    Bit rate mode : Variable
    Bit rate : Unknown / 1 509 Kbps
    Channel count : 6 channels
    Channel positions : Front: L C R, Side: L R, LFE
    Sampling rate : 48.0 KHz
    Bit depth : 24 bits
    Compression mode : Lossless / Lossy
    Language : English
    Default : No
    Forced : No
    Text #17
    ID : 17
    Format : UTF-8
    Codec ID : S_TEXT/UTF8
    Codec ID/Info : UTF-8 Plain Text
    Language : Russian
    Default : No
    Forced : No
    Text #18
    ID : 18
    Format : UTF-8
    Codec ID : S_TEXT/UTF8
    Codec ID/Info : UTF-8 Plain Text
    Title : eng
    Language : English
    Default : Yes
    Forced : No
    Text #19
    ID : 19
    Format : UTF-8
    Codec ID : S_TEXT/UTF8
    Codec ID/Info : UTF-8 Plain Text
    Language : French
    Default : No
    Forced : No

    Скриншоты

    Скачать .torrent

    Скачать торрент-файл бесплатно и на максимальной скорости!

    Как скачивать? · Что такое торрент? · Рейтинг и ограничения

    !ВНИМАНИЕ!
    Сайт не распространяет и не хранит электронные версии произведений, а занимается лишь лишь предоставлением доступа к создаваемому пользователями каталогу ссылок на торрент-файлы, которые содержат только списки хеш-сумм, убедительная просьба с жалобами обращаться напрямую к пользователю. Файлы для обмена на трекере предоставлены пользователями сайта, и администрация не несёт ответственности за их содержание. Просьба не заливать файлы, защищенные авторскими правами, а также файлы нелегального содержания!


    _________________
    [Профиль] [ЛС]
    Показать сообщения:    
    Ответить на тему

    Текущее время: Сегодня, в 08:10

    Часовой пояс: GMT + 2



    Вы не можете начинать темы
    Вы не можете отвечать на сообщения
    Вы не можете редактировать свои сообщения
    Вы не можете удалять свои сообщения
    Вы не можете голосовать в опросах
    Вы не можете прикреплять файлы к сообщениям
    Вы не можете скачивать файлы