BitTorrentTracker PerecTracker.org
BitTorrentTracker PerecTracker.org
    
Регистрация  ·  Вход
 
 · 
Забыли пароль?

  • Французский вальс (Сергей Микаэлян) [1994, военный фильм, драма, мелодрама, DVB]

    Ответить на тему
     
    Автор Сообщение

    rechyn

    Создавать темы 27-Апр-2015 13:36

           

    [Цитировать]

    Французский вальс
    27.04.15 торрент обновлен, запись трансляции ТК "Наше Кино" заменена на запись трансляции ТК "Звезда", битрейт 4425 против 2640, преимущества на сравнении
    Жанр: военный фильм, драма, мелодрама
    Год выпуска: 1994
    Продолжительность: 01:29:05
    Режиссёр: Сергей Микаэлян
    В ролях: Ирина Лачина, Дона Гибер, Робер Парти, Иван Шведов, Ия Ужова, Д. Егорова, И. Миронова, Г. Фёдорова, Е. Чугунова, И. Гуцунаева, Дмитрий Быстревский, Галина Казакина
    Описание: Франция, Вторая мировая война. Командир французского партизанского отряда Арни влюбляется в русскую девушку Елену, бежавшую из плена. В их роман война внесла свои жестокие коррективы.
    Доп. информация: Запись потока *.ts со спутника Ямал 402, 55° в.д., ремукс в *.mpg программой VideoReDo.
    Качество видео: DVB
    Формат видео: MPEG-PS
    Видео: MPEG Video, 720(768)x576 (4:3), 25,000 кадров/сек, 4425 Кбит/сек
    Аудио: MPEG Audio, 48,0 КГц, 192 Кбит/сек, 2 канала

    Сравнение

    Со старым файлом
    http://screenshotcomparison.com/comparison/124060/

    MediaInfo

    Общее
    Полное имя : D:\MPG\ФРАЦУЗСКИЙ ВАЛЬС (Zvezda 55).mpg
    Формат : MPEG-PS
    Размер файла : 2,93 Гбайт
    Продолжительность : 1 ч. 29 м.
    Режим общего битрейта : Переменный
    Общий поток : 4711 Кбит/сек
    Видео
    Идентификатор : 224 (0xE0)
    Формат : MPEG Video
    Версия формата : Version 2
    Профиль формата : Main@Main
    Параметр BVOP формата : Да
    Параметр матрицы формата : Выборочная
    Параметр GOP формата : M=3, N=12
    Продолжительность : 1 ч. 29 м.
    Вид битрейта : Переменный
    Битрейт : 4425 Кбит/сек
    Максимальный битрейт : 15,0 Мбит/сек
    Ширина : 720 пикселей
    Высота : 576 пикселей
    Соотношение сторон : 4:3
    Частота кадров : 25,000 кадров/сек
    Стандарт вещания : PAL
    Цветовое пространство : YUV
    Субдискретизация насыщенности : 4:2:0
    Битовая глубина : 8 бит
    Тип развёртки : Чересстрочная
    Порядок развёртки : Верхнее поле первое
    Метод сжатия : С потерями
    Бит/(Пиксели*Кадры) : 0.427
    Временной код первого кадра : 00:00:00:00
    Оригинал временного кода : Group of pictures header
    Размер потока : 2,75 Гбайт (94%)
    Аудио
    Идентификатор : 192 (0xC0)
    Формат : MPEG Audio
    Версия формата : Version 1
    Профиль формата : Layer 2
    Продолжительность : 1 ч. 29 м.
    Вид битрейта : Постоянный
    Битрейт : 192 Кбит/сек
    Каналы : 2 канала
    Частота : 48,0 КГц
    Метод сжатия : С потерями
    Задержка видео : 2 мс.
    Размер потока : 122 Мбайт (4%)

    Скриншот c названием фильма

    Скриншоты

    Скачать .torrent

    Скачать торрент-файл бесплатно и на максимальной скорости!

    Как скачивать? · Что такое торрент? · Рейтинг и ограничения

    !ВНИМАНИЕ!
    Сайт не распространяет и не хранит электронные версии произведений, а занимается лишь лишь предоставлением доступа к создаваемому пользователями каталогу ссылок на торрент-файлы, которые содержат только списки хеш-сумм, убедительная просьба с жалобами обращаться напрямую к пользователю. Файлы для обмена на трекере предоставлены пользователями сайта, и администрация не несёт ответственности за их содержание. Просьба не заливать файлы, защищенные авторскими правами, а также файлы нелегального содержания!


    _________________
    [Профиль] [ЛС]
    Показать сообщения:    
    Ответить на тему

    Текущее время: Сегодня, в 19:34

    Часовой пояс: GMT + 2



    Вы не можете начинать темы
    Вы не можете отвечать на сообщения
    Вы не можете редактировать свои сообщения
    Вы не можете удалять свои сообщения
    Вы не можете голосовать в опросах
    Вы не можете прикреплять файлы к сообщениям
    Вы не можете скачивать файлы