BitTorrentTracker PerecTracker.org
BitTorrentTracker PerecTracker.org
    
Регистрация  ·  Вход
 
 · 
Забыли пароль?

  • 10 Правил / 10 Правил как соблазнить девушку / 10 Pravidel Jak Sbalit Holku (Карел Янак / Karel Janak) [2014, Чехия, Романтическая комедия, мелодрама, DVDRip] VO

    Ответить на тему
     
    Автор Сообщение

    Light

    Создавать темы 26-Апр-2015 12:24

           

    [Цитировать]

    10 Правил / 10 Правил как соблазнить девушку / 10 Pravidel Jak Sbalit Holku
    Страна: Чехия
    Жанр: Романтическая комедия, мелодрама
    Год выпуска: 2014
    Продолжительность: 01:36:07
    Перевод: Одноголосый закадровый
    Cубтитры: нет
    Оригинальная аудиодорожка: нет
    Режиссер: Карел Янак / Karel Janak
    В ролях: Кристина Сваринска, Мирослав Донутил, Ян Долански, Ладислав Жупанич, Анна Шишкова, Якуб Прахар, Жерар Робер Гратадур, Мартин Странский, Тереза Нвотова, Мартин Доленски, Матоуш Рамл, Вероника Кубаржова
    Описание: Герой фильма Марек влюбляется в потрясающей красоты девушку. Но как завоевать ее сердце, ведь он обычный студент, обожающий гороскопы. Друзья решают помочь ему, обратившись за помощью к его отцу, написавшему бестселлер "Как покорить девушку"...
    Сэмпл / КиноПоиск
    Качество видео: DVDRip
    Формат видео: AVI
    Видео: MPEG-4 Visual at 1770 Кбит/сек, 720 x 304 (2.368) at 24.000 fps
    Аудио: AC-3 at 192 Кбит/сек, 2 канала, 48,0 КГц

    MediaInfo

    Общее
    Полное имя : C:\Kino\Rutracker-Razdachi\10.pravidel.jak.sbalit.holku.2014.L1.DVDRip.avi
    Формат : AVI
    Формат/Информация : Audio Video Interleave
    Размер файла : 1,32 Гбайт
    Продолжительность : 1 ч. 36 м.
    Общий поток : 1972 Кбит/сек
    Программа кодирования : VirtualDubMod 1.5.10.2 (build 2540/release)
    Библиотека кодирования : VirtualDubMod build 2540/release
    Видео
    Идентификатор : 0
    Формат : MPEG-4 Visual
    Профиль формата : Advanced Simple@L5
    Параметр BVOP формата : 1
    Параметр QPel формата : Нет
    Параметр GMC формата : Без точки перехода
    Параметр матрицы формата : Выборочная
    Идентификатор кодека : XVID
    Идентификатор кодека/Подсказка : XviD
    Продолжительность : 1 ч. 36 м.
    Битрейт : 1770 Кбит/сек
    Ширина : 720 пикселей
    Высота : 304 пикселя
    Соотношение сторон : 2,35:1
    Частота кадров : 24,000 кадра/сек
    Цветовое пространство : YUV
    Субдискретизация насыщенности : 4:2:0
    Битовая глубина : 8 бит
    Тип развёртки : Прогрессивная
    Метод сжатия : С потерями
    Бит/(Пиксели*Кадры) : 0.337
    Размер потока : 1,19 Гбайт (90%)
    Библиотека кодирования : XviD 73
    Аудио
    Идентификатор : 1
    Формат : AC-3
    Формат/Информация : Audio Coding 3
    Расширение режима : CM (complete main)
    Параметр Endianness формата : Big
    Идентификатор кодека : 2000
    Продолжительность : 1 ч. 36 м.
    Вид битрейта : Постоянный
    Битрейт : 192 Кбит/сек
    Каналы : 2 канала
    Расположение каналов : Front: L R
    Частота : 48,0 КГц
    Битовая глубина : 16 бит
    Метод сжатия : С потерями
    Задержка видео : 7 мс.
    Размер потока : 132 Мбайт (10%)
    Выравнивание : Разделение по промежуткам
    Продолжительность промежутка : 42 мс. (1,00 видеокадр)
    Время предзагрузки промежутка : 500 мс.

    Скриншоты

    Дополнительная информация

    Перевод: Maxj (Отдельная благодарность dsa69-2, М_Васильев, edus67.)
    Озвучка: Павел Морозов
    Скачать .torrent

    Скачать торрент-файл бесплатно и на максимальной скорости!

    Как скачивать? · Что такое торрент? · Рейтинг и ограничения

    !ВНИМАНИЕ!
    Сайт не распространяет и не хранит электронные версии произведений, а занимается лишь лишь предоставлением доступа к создаваемому пользователями каталогу ссылок на торрент-файлы, которые содержат только списки хеш-сумм, убедительная просьба с жалобами обращаться напрямую к пользователю. Файлы для обмена на трекере предоставлены пользователями сайта, и администрация не несёт ответственности за их содержание. Просьба не заливать файлы, защищенные авторскими правами, а также файлы нелегального содержания!


    _________________
    [Профиль] [ЛС]
    Показать сообщения:    
    Ответить на тему

    Текущее время: Сегодня, в 10:17

    Часовой пояс: GMT + 2



    Вы не можете начинать темы
    Вы не можете отвечать на сообщения
    Вы не можете редактировать свои сообщения
    Вы не можете удалять свои сообщения
    Вы не можете голосовать в опросах
    Вы не можете прикреплять файлы к сообщениям
    Вы не можете скачивать файлы