BitTorrentTracker PerecTracker.org
BitTorrentTracker PerecTracker.org
    
Регистрация  ·  Вход
 
 · 
Забыли пароль?

  • Каждый вечер в одиннадцать (Самсон Самсонов) [1969, мелодрама, экранизация, DVB]

    Ответить на тему
     
    Автор Сообщение

    Light

    Создавать темы 26-Апр-2015 12:24

           

    [Цитировать]

    Каждый вечер в одиннадцать
    26/04/15 торрент обновлен, запись трансляции ТК "Звезда" заменена на запись трансляции ТК "ТВЦ". Фильм-то оказывается широкоформатный. На видео местами баннеры с названием фильма, смотрим 2-й скрин
    Жанр: мелодрама, экранизация
    Год выпуска: 1969
    Продолжительность: 01:16:25
    Режиссёр: Самсон Самсонов
    В ролях: Михаил Ножкин, Маргарита Володина, Алла Будницкая, Зоя Степанова, Лариса Виккел, Антонина Цыганкова-Поволяева, Изольда Извицкая, Светлана Кетлерова, Михаил Бовин, Алексей Головин (II), Михаил Селютин, Ерванд (Эрик) Арзуманян, Леонид Каневский, Виталий Копылов, Виталий Киселёв, Станислав Михин
    Описание: По мотивам рассказа азербайджанского писателя Анара (Анара Рзаева) "Я, ты, он и телефон".
    Как-то вечером, в кругу друзей холостяк Станислав (Михаил Ножкин) ради развлечения позвонил по телефону наугад: номер по одной цифре назвали его друзья. Друзья поставили шуточное условие: «Если ответит женщина, ты на ней женишься». Станислав и впрямь услышал приятный, с ноткой усталости женский голос. Что-то привлекло Станислава в этом голосе, и он захотел услышать его снова, но вспомнить номер оказалось непросто. Станислав опросил всю свою компанию и заставил каждого вспоминать свою цифру.
    Доп. информация: Запись потока *.ts со спутника EUTELSAT 36A/B, 36° в.д., ремукс в *.mpg программой VideoReDo.
    Постер из коллекции советских киноплакатов коллеги tokarevamarina
    Качество видео: DVB
    Формат видео: MPEG-PS
    Видео: MPEG Video, 704(768)x576 (4:3), 25,000 кадров/сек, 3594 Кбит/сек
    Аудио: MPEG Audio, 48,0 КГц, 192 Кбит/сек, 2 канала

    MediaInfo

    Общее
    Полное имя : D:\MPG\КАЖДЫЙ ВЕЧЕР В ОДИННАДЦАТЬ (ТВЦ 36).mpg
    Формат : MPEG-PS
    Размер файла : 2,04 Гбайт
    Продолжительность : 1 ч. 15 м.
    Режим общего битрейта : Переменный
    Общий поток : 3863 Кбит/сек
    Видео
    Идентификатор : 224 (0xE0)
    Формат : MPEG Video
    Версия формата : Version 2
    Профиль формата : Main@Main
    Параметр BVOP формата : Да
    Параметр матрицы формата : Выборочная
    Параметр GOP формата : M=3, N=24
    Продолжительность : 1 ч. 15 м.
    Вид битрейта : Переменный
    Битрейт : 3594 Кбит/сек
    Максимальный битрейт : 15,0 Мбит/сек
    Ширина : 704 пикселя
    Высота : 576 пикселей
    Соотношение сторон : 4:3
    Частота кадров : 25,000 кадров/сек
    Стандарт вещания : PAL
    Цветовое пространство : YUV
    Субдискретизация насыщенности : 4:2:0
    Битовая глубина : 8 бит
    Тип развёртки : Чересстрочная
    Порядок развёртки : Верхнее поле первое
    Метод сжатия : С потерями
    Бит/(Пиксели*Кадры) : 0.355
    Временной код первого кадра : 00:00:00:00
    Оригинал временного кода : Group of pictures header
    Размер потока : 1,90 Гбайт (93%)
    Аудио
    Идентификатор : 192 (0xC0)
    Формат : MPEG Audio
    Версия формата : Version 1
    Профиль формата : Layer 2
    Продолжительность : 1 ч. 15 м.
    Вид битрейта : Постоянный
    Битрейт : 192 Кбит/сек
    Каналы : 2 канала
    Частота : 48,0 КГц
    Метод сжатия : С потерями
    Размер потока : 104 Мбайт (5%)

    Скриншоты

    Скачать .torrent

    Скачать торрент-файл бесплатно и на максимальной скорости!

    Как скачивать? · Что такое торрент? · Рейтинг и ограничения

    !ВНИМАНИЕ!
    Сайт не распространяет и не хранит электронные версии произведений, а занимается лишь лишь предоставлением доступа к создаваемому пользователями каталогу ссылок на торрент-файлы, которые содержат только списки хеш-сумм, убедительная просьба с жалобами обращаться напрямую к пользователю. Файлы для обмена на трекере предоставлены пользователями сайта, и администрация не несёт ответственности за их содержание. Просьба не заливать файлы, защищенные авторскими правами, а также файлы нелегального содержания!


    _________________
    [Профиль] [ЛС]
    Показать сообщения:    
    Ответить на тему

    Текущее время: Сегодня, в 16:20

    Часовой пояс: GMT + 2



    Вы не можете начинать темы
    Вы не можете отвечать на сообщения
    Вы не можете редактировать свои сообщения
    Вы не можете удалять свои сообщения
    Вы не можете голосовать в опросах
    Вы не можете прикреплять файлы к сообщениям
    Вы не можете скачивать файлы