BitTorrentTracker PerecTracker.org
BitTorrentTracker PerecTracker.org
    
Регистрация  ·  Вход
 
 · 
Забыли пароль?

  • Оазис / Oasis (Чан Дон Ли) [2002 г., Драма, BDRip 720p.]

    Ответить на тему
     
    Автор Сообщение

    HAwkey

    Создавать темы 26-Апр-2015 10:16

           

    [Цитировать]

    Оазис / Oasis-Год Выпуска: 2002
    Страна: Южная Корея
    Жанр: Драма
    Продолжительность: 02:13:20
    Перевод: Профессиональный (одноголосый, закадровый)
    Субтитры: нет
    Режиссер: Чан Дон Ли
    Возраст: Зрителям, достигшим 18 лет

    В ролях: Сол Кун-Гу, Мун Со-Ри, Ан Наи-Санг, Рёо Сеунг-Ван
    Описание: Придурковатый, но симпатичный парень вышел из тюряги, где отсидел за родного брата, и вернулся в семью, где никто его не ждал. Тогда он пошел извиниться перед семьей старика, сбитого машиной брата, и встретился с девушкой своей мечты. Девушка оказалась больной церебральным параличом, но это нашего героя не остановило. Так они любили друг друга, и любили бы вечно, не вмешайся в трогательный роман злые родственники, обвинившие бывшего зека в изнасиловании инвалида и отправившие влюбленного героя обратно за решетку...
    Доп. информация: Фильм победитель :
    Венецианский кинофестиваль, 2002 год
    Приз Марчелло Мастрояни
    Приз ФИПРЕССИ (конкурсная программа)
    Приз всемирной католической ассоциации по коммуникациям (SIGNIS)
    Специальная режиссерская награда (Чан Дон Ли)
    Номинации :
    Золотой лев
    Качество: BDRip 720p
    Формат: MKV
    Видео кодек: AVC
    Аудио кодек: AC3
    Видео: x264, 1280x692, 23.976 fps, 2993 Kb/s, 0.141 bit/pixel
    Аудио#1: AC3 / 6 ch / 48 kHz / 448 kbps / 16 bit / rus
    Аудио#2: DTS / 6 ch / 48 kHz / 1509 kbps / 24 bit / kor
    Релиз от: HAwkey

    Скриншоты

    MediaInfo

    Общее
    Уникальный идентификатор : 252074766234928888562136290380157783111 (0xBDA3D5846849BC55A738ECC5D4238C47)
    Полное имя : H:\Корея\Залить\Oasis.2002.720p.BluRay.x264.DTS.2AUDiO-SODiHD (1).mkv
    Формат : Matroska
    Версия формата : Version 4 / Version 2
    Размер файла : 4,61 Гбайт
    Продолжительность : 2 ч. 13 м.
    Общий поток : 4952 Кбит/сек
    Название фильма : Oasis (2002) by SODi@HD Muxer Tuner v1.67
    Дата кодирования : UTC 2015-04-25 15:23:54
    Программа кодирования : mkvmerge v6.9.1 ('Blue Panther') 32bit built on Apr 18 2014 18:15:44
    Библиотека кодирования : libebml v1.3.0 + libmatroska v1.4.1
    Видео
    Идентификатор : 1
    Формат : AVC
    Формат/Информация : Advanced Video Codec
    Профиль формата : High@L4.1
    Параметр CABAC формата : Да
    Параметр ReFrames формата : 9 кадров
    Идентификатор кодека : V_MPEG4/ISO/AVC
    Продолжительность : 2 ч. 13 м.
    Битрейт : 2993 Кбит/сек
    Ширина : 1280 пикселей
    Высота : 692 пикселя
    Соотношение сторон : 1,85:1
    Режим частоты кадров : Постоянный
    Частота кадров : 23,976 кадра/сек
    Цветовое пространство : YUV
    Субдискретизация насыщенности : 4:2:0
    Битовая глубина : 8 бит
    Тип развёртки : Прогрессивная
    Бит/(Пиксели*Кадры) : 0.141
    Размер потока : 2,70 Гбайт (58%)
    Библиотека кодирования : x264 core 142 r2389+41 02cb608 tMod [8-bit@all X86_64]
    Настройки программы : cabac=1 / ref=9 / deblock=1:-3:-3 / analyse=0x3:0x133 / me=umh / subme=11 / psy=1 / fade_compensate=0.00 / psy_rd=1.00:0.00 / mixed_ref=1 / me_range=32 / chroma_me=1 / trellis=2 / 8x8dct=1 / cqm=0 / deadzone=21,11 / fast_pskip=0 / chroma_qp_offset=-2 / threads=12 / lookahead_threads=1 / sliced_threads=0 / slices=4 / nr=0 / decimate=0 / interlaced=0 / bluray_compat=0 / constrained_intra=0 / fgo=0 / bframes=6 / b_pyramid=2 / b_adapt=2 / b_bias=0 / direct=3 / weightb=1 / open_gop=0 / weightp=2 / keyint=250 / keyint_min=23 / scenecut=40 / intra_refresh=0 / rc_lookahead=80 / rc=2pass / mbtree=1 / bitrate=2993 / ratetol=1.0 / qcomp=0.60 / qpmin=0:0:0 / qpmax=41:41:41 / qpstep=4 / cplxblur=20.0 / qblur=0.5 / ip_ratio=1.40 / aq=1:1.00 / aq-sensitivity=10.00 / aq-factor=1.00:1.00:1.00 / aq2=0 / aq3=0
    Default : Да
    Forced : Нет
    Аудио #1
    Идентификатор : 2
    Формат : AC-3
    Формат/Информация : Audio Coding 3
    Расширение режима : CM (complete main)
    Параметр Endianness формата : Big
    Идентификатор кодека : A_AC3
    Продолжительность : 2 ч. 13 м.
    Вид битрейта : Постоянный
    Битрейт : 448 Кбит/сек
    Каналы : 6 каналов
    Расположение каналов : Front: L C R, Side: L R, LFE
    Частота : 48,0 КГц
    Битовая глубина : 16 бит
    Метод сжатия : С потерями
    Задержка видео : 600 мс.
    Размер потока : 427 Мбайт (9%)
    Язык : Russian
    Default : Да
    Forced : Нет
    Аудио #2
    Идентификатор : 3
    Формат : DTS
    Формат/Информация : Digital Theater Systems
    Режим : 16
    Параметр Endianness формата : Big
    Идентификатор кодека : A_DTS
    Продолжительность : 2 ч. 13 м.
    Вид битрейта : Постоянный
    Битрейт : 1509 Кбит/сек
    Каналы : 6 каналов
    Расположение каналов : Front: L C R, Side: L R, LFE
    Частота : 48,0 КГц
    Битовая глубина : 24 бит
    Метод сжатия : С потерями
    Размер потока : 1,41 Гбайт (30%)
    Язык : Korean
    Default : Нет
    Forced : Нет
    Меню
    00:00:00.000 : en:Chapter 1
    00:09:34.240 : en:Chapter 2
    00:15:16.749 : en:Chapter 3
    00:25:11.259 : en:Chapter 4
    00:32:38.915 : en:Chapter 5
    00:41:22.271 : en:Chapter 6
    00:49:57.202 : en:Chapter 7
    00:56:31.763 : en:Chapter 8
    01:03:05.656 : en:Chapter 9
    01:08:18.552 : en:Chapter 10
    01:18:42.676 : en:Chapter 11
    01:20:58.478 : en:Chapter 12
    01:23:28.128 : en:Chapter 13
    01:35:06.367 : en:Chapter 14
    01:40:10.921 : en:Chapter 15
    01:48:27.959 : en:Chapter 16
    01:56:02.497 : en:Chapter 17
    02:08:21.694 : en:Chapter 18
    02:13:19.908 : en:Chapter 19
    Скачать .torrent

    Скачать торрент-файл бесплатно и на максимальной скорости!

    Как скачивать? · Что такое торрент? · Рейтинг и ограничения

    !ВНИМАНИЕ!
    Сайт не распространяет и не хранит электронные версии произведений, а занимается лишь лишь предоставлением доступа к создаваемому пользователями каталогу ссылок на торрент-файлы, которые содержат только списки хеш-сумм, убедительная просьба с жалобами обращаться напрямую к пользователю. Файлы для обмена на трекере предоставлены пользователями сайта, и администрация не несёт ответственности за их содержание. Просьба не заливать файлы, защищенные авторскими правами, а также файлы нелегального содержания!

    [Профиль] [ЛС]

    HAwkey ®

    Создавать темы 26-Апр-2015 10:20 (спустя 3 минуты)

           

    [Цитировать]

    Любителям Пиф-Паф-Ой-ей-ей и всяких Нинзей-чебурашек - пробегать мимо даже не останавливаться
    [Профиль] [ЛС]
    Показать сообщения:    
    Ответить на тему

    Текущее время: Сегодня, в 08:45

    Часовой пояс: GMT + 2



    Вы не можете начинать темы
    Вы не можете отвечать на сообщения
    Вы не можете редактировать свои сообщения
    Вы не можете удалять свои сообщения
    Вы не можете голосовать в опросах
    Вы не можете прикреплять файлы к сообщениям
    Вы не можете скачивать файлы