BitTorrentTracker PerecTracker.org
BitTorrentTracker PerecTracker.org
    
Регистрация  ·  Вход
 
 · 
Забыли пароль?

  • Седьмой сын / Seventh Son (Сергей Бодров / Sergey Bodrov) [2014, Великобритания, США, Канада, Китай, фэнтези, приключения, BDRip-AVC] Dub + Sub Rus, Ukr, Eng + Original Eng

    Ответить на тему
     
    Автор Сообщение

    Light

    Создавать темы 25-Апр-2015 23:48

           

    [Цитировать]


    Седьмой сын | Seventh Son
    -Страна: Великобритания, США, Канада, Китай
    Жанр: фэнтези, приключения
    Год выпуска: 2014
    Продолжительность: 01:41:59
    Перевод: Профессиональный (дублированный)
    Cубтитры: Русские (форсированные, полные), Украинские, Английские (полные, SDH)
    Оригинальная аудиодорожка: английский
    Режиссер: Сергей Бодров / Sergey Bodrov
    В ролях:
    Бен Барнс | Ben Barnes
    Джефф Бриджес | Jeff Bridges
    Джулианна Мур | Julianne Moore

    Алисия Викандер, Кит Харингтон, Джимон Хонсу, Оливия Уильямс, Антье Трауэ, Джейсон Скотт Ли, Дэвид Кабитт-ОписаниеРассказ в фильме пойдет про парня, который, так уж вышло, стал седьмым сыном седьмого сына. А только такой человек может стать ведьмаком. Но этого недостаточно, чтобы именовать себя так — необходимо пройти массу тренировок, а также усердно учиться. Ведь главное оружие ведьмака — это его ум. Хоть в народе их не любят, но кто-то же обязан убивать нечисть, хранить землю от сил зла и делать всю грязную работу? Юный Том Уорд попробует стать тем самым учеником ведьмака.-Сэмпл

    IMDb: 5.50 (20 589)
    Качество видео: BDRip-AVC
    Формат видео: MKV
    Видео: AVC 1152 x 480; 23.976 fps; 3261 kbps; 0.240 bit/pixel
    Аудио: Russian AC3 Dolby Digital; 448 Kbps; 5.1 ch; 48 KHz
    Аудио 2: English AC3 Dolby Digital; 448 kbps; 5.1 ch; 48 KHz
    Субтитры: Russian (Forced, Full), Ukrainian Full, English (Full, SDH)

    MediaInfo | Log

    Log

    x264 [info]: frame I:1148 Avg QP:14.96 size: 79591
    x264 [info]: frame P:34432 Avg QP:16.39 size: 28459
    x264 [info]: frame B:111147 Avg QP:19.34 size: 9350
    x264 [info]: consecutive B-frames: 2.7% 3.0% 14.2% 19.8% 18.9% 33.8% 4.3% 1.2% 1.0% 0.4% 0.3% 0.2% 0.3%
    x264 [info]: mb I I16..4: 5.1% 76.2% 18.7%
    x264 [info]: mb P I16..4: 0.9% 15.7% 1.9% P16..4: 27.5% 33.4% 15.0% 3.0% 0.3% skip: 2.3%
    x264 [info]: mb B I16..4: 0.1% 2.0% 0.3% B16..8: 34.2% 23.3% 4.5% direct: 5.9% skip:29.8% L0:42.1% L1:43.6% BI:14.3%
    x264 [info]: 8x8 transform intra:83.5% inter:56.9%
    x264 [info]: direct mvs spatial:99.9% temporal:0.1%
    x264 [info]: coded y,uvDC,uvAC intra: 91.7% 91.7% 77.4% inter: 27.1% 23.3% 7.5%
    x264 [info]: i16 v,h,dc,p: 48% 12% 6% 35%
    x264 [info]: i8 v,h,dc,ddl,ddr,vr,hd,vl,hu: 11% 8% 8% 9% 13% 12% 13% 12% 14%
    x264 [info]: i4 v,h,dc,ddl,ddr,vr,hd,vl,hu: 12% 7% 6% 8% 15% 13% 14% 11% 13%
    x264 [info]: i8c dc,h,v,p: 47% 20% 16% 17%
    x264 [info]: Weighted P-Frames: Y:6.6% UV:4.9%
    x264 [info]: ref P L0: 48.5% 10.8% 16.6% 6.0% 4.9% 3.3% 3.0% 1.6% 1.5% 1.2% 1.2% 1.1% 0.3% 0.0%
    x264 [info]: ref B L0: 73.1% 12.6% 5.1% 2.7% 1.8% 1.6% 1.1% 0.8% 0.6% 0.5% 0.2%
    x264 [info]: ref B L1: 92.5% 7.5%
    x264 [info]: kb/s:2758.88
    x264 [total]: encoded 146727 frames, 10.07 fps, 2758.89 kb/s, duration 4:02:45.17
    Format : Matroska
    Format version : Version 4 / Version 2
    File size : 2.51 GiB
    Duration : 1h 41mn
    Overall bit rate : 3 529 Kbps
    Encoded date : UTC 2015-04-24 22:58:08
    Writing application : mkvmerge v6.7.0 ('Back to the Ground') 32bit built on Jan 8 2014 15:03:17
    Writing library : libebml v1.3.0 + libmatroska v1.4.1
    Video
    ID : 1
    Format : AVC
    Format/Info : Advanced Video Codec
    Format profile : High@L4.1
    Format settings, CABAC : Yes
    Format settings, ReFrames : 12 frames
    Codec ID : V_MPEG4/ISO/AVC
    Duration : 1h 41mn
    Bit rate : 2 691 Kbps
    Width : 1 056 pixels
    Height : 440 pixels
    Display aspect ratio : 2.40:1
    Frame rate mode : Constant
    Frame rate : 23.976 fps
    Color space : YUV
    Chroma subsampling : 4:2:0
    Bit depth : 8 bits
    Scan type : Progressive
    Bits/(Pixel*Frame) : 0.242
    Stream size : 1.92 GiB (76%)
    Title : Seventh Son (2014) [perectracker.org]
    Writing library : x264 core 146 r2538kMod 121396c
    Encoding settings : cabac=1 / ref=12 / deblock=1:-2:-1 / analyse=0x3:0x133 / me=umh / subme=11 / psy=1 / fade_compensate=0.00 / psy_rd=1.00:0.05 / mixed_ref=1 / me_range=32 / chroma_me=1 / trellis=2 / 8x8dct=1 / cqm=0 / deadzone=21,11 / fast_pskip=0 / chroma_qp_offset=-3 / threads=12 / lookahead_threads=3 / sliced_threads=0 / nr=0 / decimate=1 / interlaced=0 / bluray_compat=0 / constrained_intra=0 / fgo=0 / bframes=12 / b_pyramid=2 / b_adapt=2 / b_bias=0 / direct=3 / weightb=1 / open_gop=0 / weightp=2 / keyint=250 / keyint_min=23 / scenecut=40 / intra_refresh=0 / rc_lookahead=80 / rc=crf / mbtree=0 / crf=17.4000 / qcomp=0.60 / qpmin=0 / qpmax=69 / qpstep=4 / vbv_maxrate=50000 / vbv_bufsize=62500 / crf_max=0.0 / nal_hrd=none / filler=0 / ip_ratio=1.40 / pb_ratio=1.30 / aq=3:0.90
    Language : English
    Default : Yes
    Forced : No
    Audio #1
    ID : 2
    Format : AC-3
    Format/Info : Audio Coding 3
    Mode extension : CM (complete main)
    Format settings, Endianness : Big
    Codec ID : A_AC3
    Duration : 1h 41mn
    Bit rate mode : Constant
    Bit rate : 384 Kbps
    Channel(s) : 6 channels
    Channel positions : Front: L C R, Side: L R, LFE
    Sampling rate : 48.0 KHz
    Bit depth : 16 bits
    Compression mode : Lossy
    Stream size : 280 MiB (11%)
    Title : DUB [BD CEE]
    Language : Russian
    Default : Yes
    Forced : No
    Audio #2
    ID : 3
    Format : AC-3
    Format/Info : Audio Coding 3
    Mode extension : CM (complete main)
    Format settings, Endianness : Big
    Codec ID : A_AC3
    Duration : 1h 41mn
    Bit rate mode : Constant
    Bit rate : 384 Kbps
    Channel(s) : 6 channels
    Channel positions : Front: L C R, Side: L R, LFE
    Sampling rate : 48.0 KHz
    Bit depth : 16 bits
    Compression mode : Lossy
    Stream size : 280 MiB (11%)
    Title : Original
    Language : English
    Default : No
    Forced : No
    Text #1
    ID : 4
    Format : UTF-8
    Codec ID : S_TEXT/UTF8
    Codec ID/Info : UTF-8 Plain Text
    Title : Forced
    Language : Russian
    Default : Yes
    Forced : No
    Text #2
    ID : 5
    Format : UTF-8
    Codec ID : S_TEXT/UTF8
    Codec ID/Info : UTF-8 Plain Text
    Title : Full
    Language : Russian
    Default : No
    Forced : No
    Text #3
    ID : 6
    Format : UTF-8
    Codec ID : S_TEXT/UTF8
    Codec ID/Info : UTF-8 Plain Text
    Title : Full
    Language : Ukrainian
    Default : No
    Forced : No
    Text #4
    ID : 7
    Format : UTF-8
    Codec ID : S_TEXT/UTF8
    Codec ID/Info : UTF-8 Plain Text
    Language : English
    Default : No
    Forced : No
    Text #5
    ID : 8
    Format : UTF-8
    Codec ID : S_TEXT/UTF8
    Codec ID/Info : UTF-8 Plain Text
    Title : SDH
    Language : English
    Default : No
    Forced : No
    Text #6
    ID : 9
    Format : UTF-8
    Codec ID : S_TEXT/UTF8
    Codec ID/Info : UTF-8 Plain Text
    Title : SDH-Colored
    Language : English
    Default : No
    Forced : No
    Menu
    00:00:00.000 : en:(01)00:00:00:000
    00:04:50.415 : en:(02)00:04:50:415
    00:10:28.544 : en:(03)00:10:28:544
    00:16:40.582 : en:(04)00:16:40:582
    00:22:40.359 : en:(05)00:22:40:359
    00:27:40.450 : en:(06)00:27:40:450
    00:30:17.690 : en:(07)00:30:17:690
    00:36:45.203 : en:(08)00:36:45:203
    00:42:37.388 : en:(09)00:42:37:388
    00:49:54.741 : en:(10)00:49:54:741
    00:54:45.073 : en:(11)00:54:45:073
    00:57:48.548 : en:(12)00:57:48:548
    01:02:53.144 : en:(13)01:02:53:144
    01:06:53.968 : en:(14)01:06:53:968
    01:11:29.285 : en:(15)01:11:29:285
    01:18:36.920 : en:(16)01:18:36:920
    01:22:10.300 : en:(17)01:22:10:300
    01:25:32.669 : en:(18)01:25:32:669
    01:30:15.034 : en:(19)01:30:15:034
    01:33:21.095 : en:(20)01:33:21:095
    01:41:59.488 : en:(21)01:41:59:488

    Скриншоты



    Скачать .torrent

    Скачать торрент-файл бесплатно и на максимальной скорости!

    Как скачивать? · Что такое торрент? · Рейтинг и ограничения

    !ВНИМАНИЕ!
    Сайт не распространяет и не хранит электронные версии произведений, а занимается лишь лишь предоставлением доступа к создаваемому пользователями каталогу ссылок на торрент-файлы, которые содержат только списки хеш-сумм, убедительная просьба с жалобами обращаться напрямую к пользователю. Файлы для обмена на трекере предоставлены пользователями сайта, и администрация не несёт ответственности за их содержание. Просьба не заливать файлы, защищенные авторскими правами, а также файлы нелегального содержания!


    _________________
    [Профиль] [ЛС]
    Показать сообщения:    
    Ответить на тему

    Текущее время: Сегодня, в 18:09

    Часовой пояс: GMT + 2



    Вы не можете начинать темы
    Вы не можете отвечать на сообщения
    Вы не можете редактировать свои сообщения
    Вы не можете удалять свои сообщения
    Вы не можете голосовать в опросах
    Вы не можете прикреплять файлы к сообщениям
    Вы не можете скачивать файлы