BitTorrentTracker PerecTracker.org
BitTorrentTracker PerecTracker.org
    
Регистрация  ·  Вход
 
 · 
Забыли пароль?

  • Всё ещё мертвы / Dead Still (Филип Адриан Бут / Philip Adrian Booth) [2014, США, Ужасы, WEB-DLRip] VO (Ворон) + Original Eng

    Ответить на тему
     
    Автор Сообщение

    Light

    Создавать темы 25-Апр-2015 23:48

           

    [Цитировать]

    Всё ещё мертвы / Dead Still-Страна: США
    Жанр: Ужасы
    Год выпуска: 2014
    Продолжительность: 01:29:40-Перевод: Одноголосый закадровый [Ворон]
    Cубтитры: нет
    Оригинальная аудиодорожка: английский-Режиссер: Филип Адриан Бут / Philip Adrian Booth-В ролях: Рэй Уайз, Бен Браудер, Гэвин Касалежно, Эль Ламонт, Стеффи Гроут, Ан Нуу Нгуйен, Тоби Николс, Кэрри Лазар, Лоуренс Тернер, Эрик Рафф-Описание: Когда в твоих руках оказывается фотокамера, ты стараешься запечатлеть мгновение. Всё, что ты любишь и всех, кто тебе дорог... на долгую и вечную память. В XVIII веке существовало поверие, что если снять мертвого, то в том мире он получит вечную жизнь. Но мертвым мало того мира. Они возвращаются через объектив фотокамеры в мир живых для того, чтобы поменяться с ними местами. Самый неожиданный взгляд на зомби-муви за последнее время. Телевизионный фильм, вышедший на канале SyFy в 2014 году. Это не призраки! Они восстали на снимках и восстали в настоящей жизни. Восстали против адского фотографа. Помни о смерти...
    Сэмпл / IMDb / КиноПоиск
    Качество видео: WEB-DLRip
    Формат видео: AVI
    Видео: MPEG-4 Visual at 1787 Кбит/сек, 720 x 400 (1.800) at 23.976 fps
    Аудио 1: Rus AC-3 at 192 Кбит/сек, 2 канала, 44,1 КГц
    Аудио 2: Eng AC-3 at 192 Кбит/сек, 2 канала, 48,0 КГц

    MediaInfo

    Общее
    Полное имя : C:\Kino\Rutracker-Razdachi\Dead.Still.2014.L1.WEB-DLRip.avi
    Формат : AVI
    Формат/Информация : Audio Video Interleave
    Размер файла : 1,37 Гбайт
    Продолжительность : 1 ч. 29 м.
    Общий поток : 2185 Кбит/сек
    Программа кодирования : VirtualDubMod 1.5.10.2 (build 2540/release)
    Библиотека кодирования : VirtualDubMod build 2540/release
    Видео
    Идентификатор : 0
    Формат : MPEG-4 Visual
    Профиль формата : Advanced Simple@L5
    Параметр BVOP формата : 1
    Параметр QPel формата : Нет
    Параметр GMC формата : Без точки перехода
    Параметр матрицы формата : Выборочная
    Идентификатор кодека : XVID
    Идентификатор кодека/Подсказка : XviD
    Продолжительность : 1 ч. 29 м.
    Битрейт : 1787 Кбит/сек
    Ширина : 720 пикселей
    Высота : 400 пикселей
    Соотношение сторон : 16:9
    Частота кадров : 23,976 кадра/сек
    Цветовое пространство : YUV
    Субдискретизация насыщенности : 4:2:0
    Битовая глубина : 8 бит
    Тип развёртки : Прогрессивная
    Метод сжатия : С потерями
    Бит/(Пиксели*Кадры) : 0.259
    Размер потока : 1,12 Гбайт (82%)
    Библиотека кодирования : XviD 73
    Аудио #1
    Идентификатор : 1
    Формат : AC-3
    Формат/Информация : Audio Coding 3
    Расширение режима : CM (complete main)
    Параметр Endianness формата : Big
    Идентификатор кодека : 2000
    Продолжительность : 1 ч. 29 м.
    Вид битрейта : Постоянный
    Битрейт : 192 Кбит/сек
    Каналы : 2 канала
    Расположение каналов : Front: L R
    Частота : 44,1 КГц
    Битовая глубина : 16 бит
    Метод сжатия : С потерями
    Задержка видео : 5 мс.
    Размер потока : 123 Мбайт (9%)
    Выравнивание : Разделение по промежуткам
    Продолжительность промежутка : 42 мс. (1,00 видеокадр)
    Время предзагрузки промежутка : 500 мс.
    Аудио #2
    Идентификатор : 2
    Формат : AC-3
    Формат/Информация : Audio Coding 3
    Расширение режима : CM (complete main)
    Параметр Endianness формата : Big
    Идентификатор кодека : 2000
    Продолжительность : 1 ч. 29 м.
    Вид битрейта : Постоянный
    Битрейт : 192 Кбит/сек
    Каналы : 2 канала
    Расположение каналов : Front: L R
    Частота : 48,0 КГц
    Битовая глубина : 16 бит
    Метод сжатия : С потерями
    Задержка видео : 26 мс.
    Размер потока : 123 Мбайт (9%)
    Выравнивание : Разделение по промежуткам
    Продолжительность промежутка : 42 мс. (1,00 видеокадр)
    Время предзагрузки промежутка : 500 мс.

    Скриншоты

    Скачать .torrent

    Скачать торрент-файл бесплатно и на максимальной скорости!

    Как скачивать? · Что такое торрент? · Рейтинг и ограничения

    !ВНИМАНИЕ!
    Сайт не распространяет и не хранит электронные версии произведений, а занимается лишь лишь предоставлением доступа к создаваемому пользователями каталогу ссылок на торрент-файлы, которые содержат только списки хеш-сумм, убедительная просьба с жалобами обращаться напрямую к пользователю. Файлы для обмена на трекере предоставлены пользователями сайта, и администрация не несёт ответственности за их содержание. Просьба не заливать файлы, защищенные авторскими правами, а также файлы нелегального содержания!


    _________________
    [Профиль] [ЛС]
    Показать сообщения:    
    Ответить на тему

    Текущее время: Сегодня, в 02:03

    Часовой пояс: GMT + 2



    Вы не можете начинать темы
    Вы не можете отвечать на сообщения
    Вы не можете редактировать свои сообщения
    Вы не можете удалять свои сообщения
    Вы не можете голосовать в опросах
    Вы не можете прикреплять файлы к сообщениям
    Вы не можете скачивать файлы