BitTorrentTracker PerecTracker.org
BitTorrentTracker PerecTracker.org
    
Регистрация  ·  Вход
 
 · 
Забыли пароль?

  • Врожденный порок / Inherent Vice (Пол Томас Андерсон / Paul Thomas Anderson) [2014, США, драма, криминал, детектив, BDRip] MVO + Original (Eng) + Sub (rus, eng)

    Ответить на тему
     
    Автор Сообщение

    Light

    Создавать темы 25-Апр-2015 11:12

           

    [Цитировать]

    Врожденный порок / Inherent Vice
    Год выпуска: 2014
    Страна: США
    Жанр: драма, криминал, детектив
    Продолжительность: 02:28:43
    Перевод: Профессиональный (многоголосый, закадровый)
    Субтитры: русские, английские - softsub (SRT)
    Оригинальная аудиодорожка: английский - отдельно
    Режиссер: Пол Томас Андерсон / Paul Thomas Anderson
    В ролях: Хоакин Феникс (Larry «Doc» Sportello), Джош Бролин (Lt. Det. Christian F. «Bigfoot» Bjornsen), Оуэн Уилсон (Coy Harlingen), Кэтрин Уотерстон (Shasta Fay Hepworth), Риз Уизерспун (Deputy D.A. Penny Kimball), Бенисио Дель Торо (Sauncho Smilax, Esq), Джена Мэлоун (Hope Harlingen), Майя Рудольф (Petunia Leeway), Мартин Шорт (Dr. Rudy Blatnoyd, D.D.S.), Джоэнна Ньюсом (Sortilège), Джордан Кристиан Хирн (Denis), Тейлор Бони (Ensenada Slim)-Бюджет: $20 000 000
    Мировая премьера: 4 октября 2014-Описание: Действие развивается в Лос-Анджелесе в конце 60-х. Главный герой Ларри Спортелло трудится на почве частного сыска и сильно увлекается марихуаной. Его разыскивает бывшая подруга, но вскоре женщина исчезает вместе со своим новым богатым поклонником. Ларри начинает расследовать дело.-Рейтинг
    : 6.708 (1903)
    : 6.90 (27 074)
    MPAA: R - Лицам до 17 лет обязательно присутствие взрослого
    -Качество: BDRip
    Формат: AVI //SAMPLE//
    Видео: 704x384 (1.83:1), 23.976 fps, XviD build 66 ~1644 kbps avg, 0.25 bit/pixel
    Аудио RUS: 48 kHz, AC3 Dolby Digital, 3/2 (L,C,R,l,r) + LFE ch, ~448 kbps - MVO
    Аудио ENG: 48 kHz, AC3 Dolby Digital, 3/2 (L,C,R,l,r) + LFE ch, ~448 kbps - Original (отдельно)

    MediaInfo

    Общее
    Полное имя : F:\Video\AVI\Films\Vrozhdennyj.Porok.2014.RUS.BDRip.XviD.AC3-AllFilms\Vrozhdennyj.Porok.2014.RUS.BDRip.XviD.AC3-AllFilms.avi
    Формат : AVI
    Формат/Информация : Audio Video Interleave
    Профиль формата : OpenDML
    Размер файла : 2,18 Гбайт
    Продолжительность : 2 ч. 28 м.
    Общий поток : 2100 Кбит/сек
    Название фильма : Врожденный порок / Inherent Vice (2014)
    Режиссёр : Shevon (Blu-Ray Disk CEE)
    Программа кодирования : VirtualDubMod 1.5.10.3 | www.virtualdub-fr.org || (build 2550/release)
    Правообладатель : AllFilms (perectracker.org)
    Видео
    Идентификатор : 0
    Формат : MPEG-4 Visual
    Профиль формата : Advanced Simple@L5
    Параметр BVOP формата : 1
    Параметр QPel формата : Нет
    Параметр GMC формата : Без точки перехода
    Параметр матрицы формата : Выборочная
    Идентификатор кодека : XVID
    Идентификатор кодека/Подсказка : XviD
    Продолжительность : 2 ч. 28 м.
    Битрейт : 1640 Кбит/сек
    Ширина : 704 пикселя
    Высота : 384 пикселя
    Соотношение сторон : 1,85:1
    Частота кадров : 23,976 кадра/сек
    Цветовое пространство : YUV
    Субдискретизация насыщенности : 4:2:0
    Битовая глубина : 8 бит
    Тип развёртки : Прогрессивная
    Метод сжатия : С потерями
    Бит/(Пиксели*Кадры) : 0.253
    Размер потока : 1,70 Гбайт (78%)
    Библиотека кодирования : XviD 66
    Аудио
    Идентификатор : 1
    Формат : AC-3
    Формат/Информация : Audio Coding 3
    Расширение режима : CM (complete main)
    Параметр Endianness формата : Big
    Идентификатор кодека : 2000
    Продолжительность : 2 ч. 28 м.
    Вид битрейта : Постоянный
    Битрейт : 448 Кбит/сек
    Каналы : 6 каналов
    Расположение каналов : Front: L C R, Side: L R, LFE
    Частота : 48,0 КГц
    Битовая глубина : 16 бит
    Метод сжатия : С потерями
    Размер потока : 477 Мбайт (21%)
    Выравнивание : Разделение по промежуткам
    Продолжительность промежутка : 42 мс. (1,00 видеокадр)
    Время предзагрузки промежутка : 500 мс.

    Скриншоты


    -
    Знаете ли Вы, что...

  • Фильм снят по мотивам романа Томаса Пинчона «Врожденный порок» (Inherent Vice, 2009).
    -
    Скачать .torrent

    Скачать торрент-файл бесплатно и на максимальной скорости!

    Как скачивать? · Что такое торрент? · Рейтинг и ограничения

    !ВНИМАНИЕ!
    Сайт не распространяет и не хранит электронные версии произведений, а занимается лишь лишь предоставлением доступа к создаваемому пользователями каталогу ссылок на торрент-файлы, которые содержат только списки хеш-сумм, убедительная просьба с жалобами обращаться напрямую к пользователю. Файлы для обмена на трекере предоставлены пользователями сайта, и администрация не несёт ответственности за их содержание. Просьба не заливать файлы, защищенные авторскими правами, а также файлы нелегального содержания!


  • _________________
    [Профиль] [ЛС]
    Показать сообщения:    
    Ответить на тему

    Текущее время: Сегодня, в 06:40

    Часовой пояс: GMT + 2



    Вы не можете начинать темы
    Вы не можете отвечать на сообщения
    Вы не можете редактировать свои сообщения
    Вы не можете удалять свои сообщения
    Вы не можете голосовать в опросах
    Вы не можете прикреплять файлы к сообщениям
    Вы не можете скачивать файлы