BitTorrentTracker PerecTracker.org
BitTorrentTracker PerecTracker.org
    
Регистрация  ·  Вход
 
 · 
Забыли пароль?

  • Мосты (Василе Паскару) [1973, драма, экранизация, VHSRip]

    Ответить на тему
     
    Автор Сообщение

    Light

    Создавать темы 24-Апр-2015 22:36

           

    [Цитировать]

    Мосты
    Жанр: драма, экранизация
    Год выпуска: 1973
    Продолжительность: 01:34:14
    Режиссёр: Василе Паскару
    В ролях: Бухути Закариадзе, Юрий Меншагин, Ирина Борисова, Михаил Боярский, Юрий Рашкин, Ион Унгуряну, Михай (Михаил) Волонтир, Ион Шкуря, Виктор Чутак, Борис Голдаев, Трифон Грузин, Марика Балан, Евгения Тудорашку, Илие Гуцу, Михаил Бадикяну, Елена Михеева, Игнат Брату, Василе Паскару, Георгий Хассо, Ион Аракелу, Никита Лысенко
    Описание: Война своей безнравственностью и жестокостью коснулась устоев - "мостов жизни" - простого молдавского села...
    Доп. информация: По одноимённому роману Иона К. Чобану. Фильм действительно очень редкий. Прошу сильно не пинать за качество. Лучшего пока не нашли.
    Качество видео: VHSRip
    Формат видео: AVI
    Видео: 720x368 (1.96:1),25 fps,XviD build 50, 1458 kbps avg, 0.22 bit/pixel.
    Аудио: 44.1 kHz, MPEG Layer 3, 2 ch,128.00 kbps avg.

    MediaInfo

    Общее
    Полное имя : E:\1973 - И.Чобану 'Мосты - Podurile'.avi
    Формат : AVI
    Формат/Информация : Audio Video Interleave
    Профиль формата : OpenDML
    Размер файла : 1,05 Гбайт
    Продолжительность : 1 ч. 34 м.
    Общий поток : 1593 Кбит/сек
    Программа кодирования : Lavf52.93.0
    Видео
    Идентификатор : 0
    Формат : xvid
    Идентификатор кодека : xvid
    Продолжительность : 1 ч. 34 м.
    Битрейт : 1449 Кбит/сек
    Ширина : 720 пикселей
    Высота : 368 пикселей
    Соотношение сторон : 1,957
    Частота кадров : 25,000 кадров/сек
    Бит/(Пиксели*Кадры) : 0.219
    Размер потока : 977 Мбайт (91%)
    Аудио
    Идентификатор : 1
    Формат : MPEG Audio
    Версия формата : Version 1
    Профиль формата : Layer 3
    Режим : Joint stereo
    Расширение режима : MS Stereo
    Идентификатор кодека : 55
    Идентификатор кодека/Подсказка : MP3
    Продолжительность : 1 ч. 34 м.
    Вид битрейта : Постоянный
    Битрейт : 128 Кбит/сек
    Каналы : 2 канала
    Частота : 44,1 КГц
    Метод сжатия : С потерями
    Размер потока : 86,3 Мбайт (8%)
    Выравнивание : Соединение по промежуткам
    Продолжительность промежутка : 26 мс. (0,65 видеокадр)
    Библиотека кодирования : LAMEЄЄ

    Скриншоты

    Рецензия

    Перед нами проходит на экране жизнь молдавского села на протяжении десятилетий— от трудных лет под властью румынских бояр, от недолгих месяцев свободной жизни после воссоединения с Советской страной до гнета и ужасов фашистской оккупации и первых послевоенных лет возрождения. Поставлен этот фильм по одноименному роману классика молдавской советской литературы И. Чобану. О времени, о событиях большого исторического значения рассказано через личные судьбы многих героев, представляющих определенные классы и прослойки общества. История каждого персонажа интересна, но она не обладает той емкостью, которая делает уникальное типичным. Это история крестьянина, который срубил виноградник, чтобы не достался помещику за долги. Это история жадного, рвущегося к богатству Негорэ. Это история Вики, которая, любя Тодерикэ, по приказу своего отчима Негарэ вышла замуж за Гицу, ставшего поле прихода фашистов верно служить им , а затем последовала за ним, когда он укрылся в лесу после изгнания гитлеровских оккупантов.
    Основной наш упрек создателям этой ленты — в иллюстративности, которой нередко грешат экранизации литературных произведений. Однако при всем этом судьбы людские не могут не интересовать нас, музыка, песни и танцы не могут оставить равнодушными, так же, как не может зритель не отметить полнокровность и самобытность созданного умным и тонким актером Бухути Закариадзе образа старого деда Тоадера.
    Михаил Белявский
    «Спутник кинозрителя», август 1974 года
    Скачать .torrent

    Скачать торрент-файл бесплатно и на максимальной скорости!

    Как скачивать? · Что такое торрент? · Рейтинг и ограничения

    !ВНИМАНИЕ!
    Сайт не распространяет и не хранит электронные версии произведений, а занимается лишь лишь предоставлением доступа к создаваемому пользователями каталогу ссылок на торрент-файлы, которые содержат только списки хеш-сумм, убедительная просьба с жалобами обращаться напрямую к пользователю. Файлы для обмена на трекере предоставлены пользователями сайта, и администрация не несёт ответственности за их содержание. Просьба не заливать файлы, защищенные авторскими правами, а также файлы нелегального содержания!


    _________________
    [Профиль] [ЛС]
    Показать сообщения:    
    Ответить на тему

    Текущее время: Сегодня, в 12:09

    Часовой пояс: GMT + 2



    Вы не можете начинать темы
    Вы не можете отвечать на сообщения
    Вы не можете редактировать свои сообщения
    Вы не можете удалять свои сообщения
    Вы не можете голосовать в опросах
    Вы не можете прикреплять файлы к сообщениям
    Вы не можете скачивать файлы