BitTorrentTracker PerecTracker.org
BitTorrentTracker PerecTracker.org
    
Регистрация  ·  Вход
 
 · 
Забыли пароль?

  • Байки из склепа : Демон рыцарь / Рыцарь демонов ночи / Tales from the Crypt : Demon Knight (Эрнест Р. Дикерсон / Ernest R. Dickerson, ) [1995, США, ужасы, фантастика, BDRemux 1080p] DVO + 3x MVO + AVO + original (eng) + sub

    Ответить на тему
     
    Автор Сообщение

    Flirldrerve

    Создавать темы 24-Апр-2015 18:24

           

    [Цитировать]

    Байки Из Склепа : Демон рыцарь / Рыцарь демонов ночи / Tales from the Crypt : Demon Knight
    Страна: США
    Жанр: ужасы, фантастика
    Год выпуска: 1995
    Продолжительность: 01:32:22
    Перевод 1: Профессиональный (многоголосый закадровый) R5
    Перевод 2: Профессиональный (многоголосый закадровый) СТС
    Перевод 3: Профессиональный (многоголосый закадровый) ТВ3
    Перевод 4: Профессиональный (многоголосый закадровый) Премьер Видео Фильм
    Перевод 5: Авторский (одноголосый закадровый) Гаврилов
    Cубтитры: русские, английские
    Оригинальная аудиодорожка: английский
    Режиссер: Эрнест Р. Дикерсон / Ernest R. Dickerson, Гилберт Адлер / Gilbert Adler
    В ролях: Джон Кассир , Билли Зейн, Уильям Сэдлер, Джада Пинкетт Смит, Бренда Бакки, Си Си Эйч Паундер, Дик Миллер, Томас Хейден Чёрч, Джон Шак, Гэри Фармер, Чарльз Флайшер, Тим Де Зарн, Шерри Роуз, Райан О`Донохью, Тони Салом, Кен Болдуин, Чейси Лэйн, Реда Биби, Трэйси Бингхэм
    Описание: Два «человека», живущих уже не первую сотню лет, приезжают в маленький городок. Один из них, повелитель демонов, может понаделать их целую кучу из своей крови. А второй пытается его победить при помощи крови разбойника Варраввы, распятого рядом с Христом. Содержалась эта кровь в седьмом ключе, необходимом Нечистому для окончательного овладения миром. Участниками этой насыщенной кошмарами борьбы оказались несколько обычных граждан, о чем они вскоре очень пожалели…
    Доп. информация:
    Дорожка от "Премьер" записана с VHS касеты спасибо Fikaloid качество отличное.
    За предоставленную запись с канала ТВ3 спасибо ActaBiZz. Финальные титры канал не показывал, поэтому точно чей перевод не ясно.
    За дорожки R5 и А, Гаврилова спасибо Spiellberg
    Сэмпл: https://yadi.sk/i/e_fqIN9rgDPue
    Тип релиза: BDRemux 1080p
    Контейнер: BDAV
    Видео: 1920x1080 at 23.976 fps, MPEG-4 AVC, ~29948 kbps avg
    Аудио 1: Русский, AC3 5.1 640 Kbps 48,0 КГц - R5
    Аудио 2: Русский, AC3 2.0 192 Kbps 48,0 КГц - СТС
    Аудио 3: Русский, AC3 2.0 192 Kbps 48,0 КГц - ТВ3
    Аудио 4: Русский, AC3 2.0 224 Kbps 48,0 КГц - Премьер
    Аудио 5: Русский, AC3 5.1 640 Kbps 48,0 КГц - Гаврилов
    Аудио 6: English, DTS-HD Master Audio / 5.1 / 48 kHz / 1980 kbps / 16-bit (DTS Core: 5.1 / 48 kHz / 1509 kbps / 16-bit) - Оригинал
    Формат субтитров: PGS

    MediaInfo

    General #1
    ID : 1 (0x1)
    Format : BDAV
    Format/Info : Blu-ray Video
    File size : 23.1 GiB
    Duration : 1h 32mn
    Overall bit rate mode : Variable
    Overall bit rate : 35.8 Mbps
    Maximum Overall bit rate : 35.5 Mbps
    Video #4113
    ID : 4113 (0x1011)
    Menu ID : 1 (0x1)
    Format : AVC
    Format/Info : Advanced Video Codec
    Format profile : High@L4.1
    Format settings, CABAC : Yes
    Format settings, ReFrames : 4 frames
    Codec ID : 27
    Duration : 1h 32mn
    Bit rate mode : Variable
    Maximum bit rate : 36.0 Mbps
    Width : 1 920 pixels
    Height : 1 080 pixels
    Display aspect ratio : 16:9
    Frame rate : 23.976 fps
    Standard : NTSC
    Color space : YUV
    Chroma subsampling : 4:2:0
    Bit depth : 8 bits
    Scan type : Progressive
    Color primaries : BT.709
    Transfer characteristics : BT.709
    Matrix coefficients : BT.709
    Audio #4352
    ID : 4352 (0x1100)
    Menu ID : 1 (0x1)
    Format : AC-3
    Format/Info : Audio Coding 3
    Mode extension : CM (complete main)
    Format settings, Endianness : Big
    Codec ID : 129
    Duration : 1h 32mn
    Bit rate mode : Constant
    Bit rate : 640 Kbps
    Channel count : 6 channels
    Channel positions : Front: L C R, Side: L R, LFE
    Sampling rate : 48.0 KHz
    Bit depth : 16 bits
    Compression mode : Lossy
    Stream size : 423 MiB (2%)
    Audio #4353
    ID : 4353 (0x1101)
    Menu ID : 1 (0x1)
    Format : AC-3
    Format/Info : Audio Coding 3
    Mode extension : CM (complete main)
    Format settings, Endianness : Big
    Codec ID : 129
    Duration : 1h 32mn
    Bit rate mode : Constant
    Bit rate : 192 Kbps
    Channel count : 2 channels
    Channel positions : Front: L R
    Sampling rate : 48.0 KHz
    Bit depth : 16 bits
    Compression mode : Lossy
    Stream size : 127 MiB (1%)
    Audio #4354
    ID : 4354 (0x1102)
    Menu ID : 1 (0x1)
    Format : AC-3
    Format/Info : Audio Coding 3
    Mode extension : CM (complete main)
    Format settings, Endianness : Big
    Codec ID : 129
    Duration : 1h 32mn
    Bit rate mode : Constant
    Bit rate : 192 Kbps
    Channel count : 2 channels
    Channel positions : Front: L R
    Sampling rate : 48.0 KHz
    Bit depth : 16 bits
    Compression mode : Lossy
    Stream size : 127 MiB (1%)
    Audio #4355
    ID : 4355 (0x1103)
    Menu ID : 1 (0x1)
    Format : AC-3
    Format/Info : Audio Coding 3
    Mode extension : CM (complete main)
    Format settings, Endianness : Big
    Codec ID : 129
    Duration : 1h 32mn
    Bit rate mode : Constant
    Bit rate : 224 Kbps
    Channel count : 2 channels
    Channel positions : Front: L R
    Sampling rate : 48.0 KHz
    Bit depth : 16 bits
    Compression mode : Lossy
    Stream size : 148 MiB (1%)
    Audio #4356
    ID : 4356 (0x1104)
    Menu ID : 1 (0x1)
    Format : AC-3
    Format/Info : Audio Coding 3
    Mode extension : CM (complete main)
    Format settings, Endianness : Big
    Codec ID : 129
    Duration : 1h 32mn
    Bit rate mode : Constant
    Bit rate : 640 Kbps
    Channel count : 6 channels
    Channel positions : Front: L C R, Side: L R, LFE
    Sampling rate : 48.0 KHz
    Bit depth : 16 bits
    Compression mode : Lossy
    Stream size : 423 MiB (2%)
    Audio #4357
    ID : 4357 (0x1105)
    Menu ID : 1 (0x1)
    Format : DTS
    Format/Info : Digital Theater Systems
    Format profile : MA / Core
    Mode : 16
    Format settings, Endianness : Big
    Muxing mode : Stream extension
    Codec ID : 134
    Duration : 1h 32mn
    Bit rate mode : Variable
    Bit rate : Unknown / 1 509 Kbps
    Channel count : 6 channels
    Channel positions : Front: L C R, Side: L R, LFE
    Sampling rate : 48.0 KHz
    Bit depth : 16 bits
    Compression mode : Lossless / Lossy
    Text #4608
    ID : 4608 (0x1200)
    Menu ID : 1 (0x1)
    Format : PGS
    Codec ID : 144
    Text #4609
    ID : 4609 (0x1201)
    Menu ID : 1 (0x1)
    Format : PGS
    Codec ID : 144

    Скриншоты

    24.04.2015 Замена видео с HDTV на Blu Ray так же заменена озвучкек "R5", "Премьер", "А, Гаврилов" на лучшие по качеству.
    Скачать .torrent

    Скачать торрент-файл бесплатно и на максимальной скорости!

    Как скачивать? · Что такое торрент? · Рейтинг и ограничения

    !ВНИМАНИЕ!
    Сайт не распространяет и не хранит электронные версии произведений, а занимается лишь лишь предоставлением доступа к создаваемому пользователями каталогу ссылок на торрент-файлы, которые содержат только списки хеш-сумм, убедительная просьба с жалобами обращаться напрямую к пользователю. Файлы для обмена на трекере предоставлены пользователями сайта, и администрация не несёт ответственности за их содержание. Просьба не заливать файлы, защищенные авторскими правами, а также файлы нелегального содержания!


    _________________
    [Профиль] [ЛС]
    Показать сообщения:    
    Ответить на тему

    Текущее время: Сегодня, в 19:55

    Часовой пояс: GMT + 2



    Вы не можете начинать темы
    Вы не можете отвечать на сообщения
    Вы не можете редактировать свои сообщения
    Вы не можете удалять свои сообщения
    Вы не можете голосовать в опросах
    Вы не можете прикреплять файлы к сообщениям
    Вы не можете скачивать файлы