BitTorrentTracker PerecTracker.org
BitTorrentTracker PerecTracker.org
    
Регистрация  ·  Вход
 
 · 
Забыли пароль?

  • Люди не всё знают (Николай Макаренко) [1963, Военно-патриотический, социальная драма, экранизац, VHSRip]

    Ответить на тему
     
    Автор Сообщение

    Light

    Создавать темы 24-Апр-2015 10:00

           

    [Цитировать]

    Люди не всё знают
    Жанр: Военно-патриотический, социальная драма, экранизац
    Год выпуска: 1963
    Продолжительность: 01:17:46

    Режиссёр: Николай Макаренко
    В ролях: Анатолий Соловьёв, А. Чернышов, Юрий Малышко, Юрий Перов, Светлана Данильченко, М. Бутакова, Генрих Осташевский, Петр Вескляров, Василий Дашенко, Майя Коханова, Михаил Заднепровский, Аркадий Гашинский, Владимир Дальский, Виталий Смоляк, Валентинс Скулме, Полина Куманченко, А. Срибный, В. Седенко, Серёжа Стельмах, А. Тальничных, Марта Стельмах, А. Смиян, Анатолий Скибенко, Виктор Цымбалист, А. Куцен, Виктор Халатов, Евгений Балиев, Григорий Тесля, Наталия Гебдовская, Анатолий Иванов (VIII), Н. Дуденко, О. Тин, И. Мережинский, Владимир Титов, М. Хорош
    Описание: По мотивам романов М. Стельмаха «Кровь людская — не водица», «Большая родня». Завершающий фильм кинотрилогии, начатой фильмами «Кровь людская — не водица» и «Дмитро Горицвит». Действие происходит в годы Великой Отечественной войны. С командиром партизанского отряда, народным мстителем Дмитро Горицвитом сражаются против фашистов и бывшего петлюровца Бараболея, вернувшегося на Украину, его односельчане — любимая Марта, бесстрашная Гануся, а также командиры Красной Армии Савва Тур и Михаил Созинов, из-за ранения оставшиеся в тылу врага.
    Доп. информация: Релиз:, рип vova68
    Семпл: http://multi-up.com/1045193
    Качество видео: VHSRip
    Формат видео: AVI

    Видео: 688x512 (1.34:1), 25 fps, DivX Codec 5.x or 6.x ~2196 kbps avg, 0.25 bit/pixel
    Аудио: 48 kHz, MPEG Layer 3, 2 ch, ~128.00 kbps avg - Русский

    MediaInfo

    Общее
    Полное имя : D:\Люди не всё знают.avi
    Формат : AVI
    Формат/Информация : Audio Video Interleave
    Размер файла : 1,27 Гбайт
    Продолжительность : 1 ч. 17 м.
    Общий поток : 2334 Кбит/сек
    Программа кодирования : VirtualDubModRus 1.5.10.2 (build 2540/release)
    Библиотека кодирования : VirtualDubMod build 2540/release
    Видео
    Идентификатор : 0
    Формат : MPEG-4 Visual
    Параметр BVOP формата : Да
    Параметр QPel формата : Нет
    Параметр GMC формата : Без точки перехода
    Параметр матрицы формата : Default (H.263)
    Идентификатор кодека : DX50
    Идентификатор кодека/Подсказка : DivX 5
    Продолжительность : 1 ч. 17 м.
    Битрейт : 2196 Кбит/сек
    Ширина : 688 пикселей
    Высота : 512 пикселей
    Соотношение сторон : 4:3
    Частота кадров : 25,000 кадров/сек
    Цветовое пространство : YUV
    Субдискретизация насыщенности : 4:2:0
    Битовая глубина : 8 бит
    Тип развёртки : Прогрессивная
    Метод сжатия : С потерями
    Бит/(Пиксели*Кадры) : 0.249
    Размер потока : 1,19 Гбайт (94%)
    Библиотека кодирования : DivX 6.8.5 (UTC 2009-08-20)
    Аудио
    Идентификатор : 1
    Формат : MPEG Audio
    Версия формата : Version 1
    Профиль формата : Layer 3
    Режим : Joint stereo
    Расширение режима : MS Stereo
    Идентификатор кодека : 55
    Идентификатор кодека/Подсказка : MP3
    Продолжительность : 1 ч. 17 м.
    Вид битрейта : Постоянный
    Битрейт : 128 Кбит/сек
    Каналы : 2 канала
    Частота : 48,0 КГц
    Метод сжатия : С потерями
    Размер потока : 71,2 Мбайт (5%)
    Выравнивание : Соединение по промежуткам
    Продолжительность промежутка : 40 мс. (1,00 видеокадр)
    Время предзагрузки промежутка : 504 мс.
    Библиотека кодирования : LAME3.97b
    Настройки программы : -m j -V 4 -q 2 -lowpass 17 -b 128

    Скриншоты

    Скачать .torrent

    Скачать торрент-файл бесплатно и на максимальной скорости!

    Как скачивать? · Что такое торрент? · Рейтинг и ограничения

    !ВНИМАНИЕ!
    Сайт не распространяет и не хранит электронные версии произведений, а занимается лишь лишь предоставлением доступа к создаваемому пользователями каталогу ссылок на торрент-файлы, которые содержат только списки хеш-сумм, убедительная просьба с жалобами обращаться напрямую к пользователю. Файлы для обмена на трекере предоставлены пользователями сайта, и администрация не несёт ответственности за их содержание. Просьба не заливать файлы, защищенные авторскими правами, а также файлы нелегального содержания!


    _________________
    [Профиль] [ЛС]
    Показать сообщения:    
    Ответить на тему

    Текущее время: Сегодня, в 22:24

    Часовой пояс: GMT + 2



    Вы не можете начинать темы
    Вы не можете отвечать на сообщения
    Вы не можете редактировать свои сообщения
    Вы не можете удалять свои сообщения
    Вы не можете голосовать в опросах
    Вы не можете прикреплять файлы к сообщениям
    Вы не можете скачивать файлы