BitTorrentTracker PerecTracker.org
BitTorrentTracker PerecTracker.org
    
Регистрация  ·  Вход
 
 · 
Забыли пароль?

  • Большие глаза / Big Eyes (Тим Бёртон / Tim Burton) [2014, США, Канада, драма, биография, BDRip] Dub (iTunes Russia) Subs (eng)

    Ответить на тему
     
    Автор Сообщение

    Light

    Создавать темы 24-Апр-2015 10:00

           

    [Цитировать]

    Большие глаза / Big Eyes«She created it. He sold it. And they bought it»

    (Золотой глобус, 2015 год / Лучшая женская роль (комедия или мюзикл) - Эми Адамс)
    Страна: США, Канада
    Жанр: драма, биография
    Год выпуска: 2014
    Продолжительность: 01:45:44.338
    Перевод: Профессиональный (полное дублирование) |iTunes Russia|
    Cубтитры: английские (full, SDH) (*.srt, отдельным файлом)
    Оригинальная аудиодорожка: английский-Режиссер: Тим Бёртон / Tim Burton-В ролях: Эми Адамс, Кристоф Вальц, Кристен Риттер, Джейсон Шварцман, Дэнни Хьюстон, Теренс Стэмп, Джон Полито, Элизабетта Фантоне, Джеймс Саито, Гуидо Фурлани-Описание: Яркая и цветущая Америка 50-х. В сочных красках Сан-Франциско зарождается то, что разрушит традиционный взгляд на искусство и бесповоротно изменит то, как выглядит наша жизнь. Появившийся из ниоткуда художник Уолтер Кин придумал поп-арт. Его необычные картины, изображающие трогательных детей с огромными глазами, произвели настоящий фурор и буквально заполонили весь мир. Их печатают на календарях, открытках, домохозяйки щеголяют в фартуках с их изображением. Уолтер становится королем современного искусства, одним из самых известных арт-деятелей планеты.
    Но на пике славы художника его скромная супруга Маргарет вдруг утверждает, что Уолтер — мошенник, и именно она — автор знаменитых картин. Неожиданно открываются шокирующие подробности жизни четы Кин. Весь мир замер в ожидании ответа на вопрос: кто же все-таки тот гений, чьи смелые и оригинальные картины украшают теперь каждую гостиную от Парижа до Аляски?--Релиз от: -Автор рипа: Yarmak23-Качество видео: BDRip | исх. Big.Eyes.2014.1080p.BluRay.AVC.DTS-HD.MA.5.1-HDAccess |
    Формат видео: AVI
    Видео: 720x400 (16:9), 23.976 fps, XviD 65 ~2042 kbps avg, 0.296 bit/pixel
    Аудио #1: 48 kHz, AC3 Dolby Digital, 3/2 (L,C,R,l,r) + LFE ch, ~384.00 kbps Constant |Дубляж, iTunes Russia|
    Аудио #2: 48 kHz, AC3 Dolby Digital, 3/2 (L,C,R,l,r) + LFE ch, ~448.00 kbps Constant |Оригинал|
    Скачать: Сэмпл-

    MI

    General
    Complete name : Bolshie.Glaza.2014.D.ituns.BDRip.2.18GB.by.Yarmak23.avi
    Format : AVI
    Format/Info : Audio Video Interleave
    Format profile : OpenDML
    File size : 2.14 GiB
    Duration : 1h 45mn
    Overall bit rate : 2 892 Kbps
    Writing application : VirtualDubModRus 1.5.10.2 (build 2542/release)
    Writing library : VirtualDubMod build 2542/release
    Video
    ID : 0
    Format : MPEG-4 Visual
    Format profile : Advanced Simple@L5
    Format settings, BVOP : 1
    Format settings, QPel : No
    Format settings, GMC : No warppoints
    Format settings, Matrix : Custom
    Codec ID : XVID
    Codec ID/Hint : XviD
    Duration : 1h 45mn
    Bit rate : 2 042 Kbps
    Width : 720 pixels
    Height : 400 pixels
    Display aspect ratio : 16:9
    Frame rate : 23.976 fps
    Color space : YUV
    Chroma subsampling : 4:2:0
    Bit depth : 8 bits
    Scan type : Progressive
    Compression mode : Lossy
    Bits/(Pixel*Frame) : 0.296
    Stream size : 1.51 GiB (71%)
    Writing library : XviD 65
    Audio #1
    ID : 1
    Format : AC-3
    Format/Info : Audio Coding 3
    Mode extension : CM (complete main)
    Format settings, Endianness : Big
    Codec ID : 2000
    Duration : 1h 45mn
    Bit rate mode : Constant
    Bit rate : 384 Kbps
    Channel(s) : 6 channels
    Channel positions : Front: L C R, Side: L R, LFE
    Sampling rate : 48.0 KHz
    Bit depth : 16 bits
    Compression mode : Lossy
    Stream size : 290 MiB (13%)
    Alignment : Split accross interleaves
    Interleave, duration : 42 ms (1.00 video frame)
    Interleave, preload duration : 500 ms
    Audio #2
    ID : 2
    Format : AC-3
    Format/Info : Audio Coding 3
    Mode extension : CM (complete main)
    Format settings, Endianness : Big
    Codec ID : 2000
    Duration : 1h 45mn
    Bit rate mode : Constant
    Bit rate : 448 Kbps
    Channel(s) : 6 channels
    Channel positions : Front: L C R, Side: L R, LFE
    Sampling rate : 48.0 KHz
    Bit depth : 16 bits
    Compression mode : Lossy
    Stream size : 339 MiB (15%)
    Alignment : Split accross interleaves
    Interleave, duration : 42 ms (1.00 video frame)
    Interleave, preload duration : 500 ms

    Скриншоты


    Цитата:
  • Изначально вместо Эми Адамс и Кристофа Вальца на главные роли рассматривались кандидатуры Риз Уизерспун и Райана Рейнольдса. - детям до 13 лет просмотр не желателен
    Скачать .torrent

    Скачать торрент-файл бесплатно и на максимальной скорости!

    Как скачивать? · Что такое торрент? · Рейтинг и ограничения

    !ВНИМАНИЕ!
    Сайт не распространяет и не хранит электронные версии произведений, а занимается лишь лишь предоставлением доступа к создаваемому пользователями каталогу ссылок на торрент-файлы, которые содержат только списки хеш-сумм, убедительная просьба с жалобами обращаться напрямую к пользователю. Файлы для обмена на трекере предоставлены пользователями сайта, и администрация не несёт ответственности за их содержание. Просьба не заливать файлы, защищенные авторскими правами, а также файлы нелегального содержания!


  • _________________
    [Профиль] [ЛС]
    Показать сообщения:    
    Ответить на тему

    Текущее время: Сегодня, в 18:19

    Часовой пояс: GMT + 2



    Вы не можете начинать темы
    Вы не можете отвечать на сообщения
    Вы не можете редактировать свои сообщения
    Вы не можете удалять свои сообщения
    Вы не можете голосовать в опросах
    Вы не можете прикреплять файлы к сообщениям
    Вы не можете скачивать файлы