BitTorrentTracker PerecTracker.org
BitTorrentTracker PerecTracker.org
    
Регистрация  ·  Вход
 
 · 
Забыли пароль?

  • Врожденный порок / Inherent Vice (Пол Томас Андерсон / Paul Thomas Anderson) [2014, США, драма, криминал, детектив, BDRip-AVC] MVO + Original Eng

    Ответить на тему
     
    Автор Сообщение

    Light

    Создавать темы 23-Апр-2015 21:24

           

    [Цитировать]

    Врожденный порок
    Inherent Vice

    Страна: США
    Жанр: драма, криминал, детектив
    Год выпуска: 2014
    Продолжительность: 02:28:40
    Перевод: Профессиональный (многоголосый закадровый)
    Cубтитры: нет
    Оригинальная аудиодорожка: английский
    Режиссер: Пол Томас Андерсон / Paul Thomas Anderson
    В ролях: Хоакин Феникс, Джош Бролин, Оуэн Уилсон, Кэтрин Уотерстон, Риз Уизерспун, Бенисио Дель Торо, Джена Мэлоун, Майя Рудольф, Мартин Шорт, Джоэнна Ньюсом
    Описание: Действие развивается в Лос-Анджелесе в конце 60-х. Главный герой Ларри Спортелло трудится на почве частного сыска и сильно увлекается марихуаной. Его разыскивает бывшая подруга, но вскоре женщина исчезает вместе со своим новым богатым поклонником. Ларри начинает расследовать дело.

    Сэмпл: http://sendfile.su/1111077
    Качество видео: BDRip-AVC [Врожденный порок / Inherent Vice (2014) Blu-ray Disc [EUR] -BLUEBIRD]
    Формат видео: MKV
    Видео: AVC, 1152 x 622 (1,85:1), 1955 kbps, 23,976 fps, 0.114 bpp
    Аудио: AC3, 6ch, 48 kHz, 448 kbps, 16 bit
    Аудио 2: AC3, 6ch, 48 kHz, 384 kbps, 16 bit

    MediaInfo

    Уникальный идентификатор : 218490334359106773432782484921743882676 (0xA45FB52F1CF1C52CBE1AC3B92E84B9B4)
    Полное имя : F:\Films\Porok\Porok.mkv
    Формат : Matroska
    Версия формата : Version 4 / Version 2
    Размер файла : 2,90 Гбайт
    Продолжительность : 2 ч. 28 м.
    Общий поток : 2789 Кбит/сек
    Дата кодирования : UTC 2015-04-23 12:03:41
    Программа кодирования : mkvmerge v7.7.0 ('Six Voices') 64bit built on Feb 28 2015 23:39:33
    Библиотека кодирования : libebml v1.3.1 + libmatroska v1.4.2
    _STATISTICS_WRITING_APP : mkvmerge v7.7.0 ('Six Voices') 64bit built on Feb 28 2015 23:39:33
    _STATISTICS_WRITING_DATE_UTC : 2015-04-23 12:03:41
    _STATISTICS_TAGS : BPS DURATION NUMBER_OF_FRAMES NUMBER_OF_BYTES
    DURATION : 02:28:44.512000000
    NUMBER_OF_FRAMES : 278891
    NUMBER_OF_BYTES : 428376576
    Видео
    Идентификатор : 1
    Формат : AVC
    Формат/Информация : Advanced Video Codec
    Профиль формата : High@L4.1
    Параметр CABAC формата : Да
    Параметр ReFrames формата : 8 кадров
    Идентификатор кодека : V_MPEG4/ISO/AVC
    Продолжительность : 2 ч. 28 м.
    Битрейт : 1955 Кбит/сек
    Ширина : 1152 пикселя
    Высота : 622 пикселя
    Соотношение сторон : 1,85:1
    Соотношение сторон в оригинале : 1,85:1
    Режим частоты кадров : Постоянный
    Частота кадров : 23,976 кадра/сек
    Цветовое пространство : YUV
    Субдискретизация насыщенности : 4:2:0
    Битовая глубина : 8 бит
    Тип развёртки : Прогрессивная
    Бит/(Пиксели*Кадры) : 0.114
    Размер потока : 1,98 Гбайт (68%)
    Библиотека кодирования : x264 core 142 r2431 ac76440
    Настройки программы : cabac=1 / ref=8 / deblock=1:-2:-1 / analyse=0x3:0x133 / me=umh / subme=9 / psy=1 / psy_rd=1.00:0.05 / mixed_ref=0 / me_range=36 / chroma_me=1 / trellis=2 / 8x8dct=1 / cqm=0 / deadzone=21,11 / fast_pskip=0 / chroma_qp_offset=-3 / threads=4 / lookahead_threads=1 / sliced_threads=0 / nr=0 / decimate=0 / interlaced=0 / bluray_compat=0 / constrained_intra=0 / bframes=12 / b_pyramid=2 / b_adapt=2 / b_bias=0 / direct=1 / weightb=1 / open_gop=0 / weightp=2 / keyint=240 / keyint_min=23 / scenecut=40 / intra_refresh=0 / rc=2pass / mbtree=0 / bitrate=1955 / ratetol=1.0 / qcomp=0.70 / qpmin=10 / qpmax=69 / qpstep=4 / cplxblur=20.0 / qblur=0.5 / ip_ratio=1.40 / pb_ratio=1.30 / aq=1:1.00
    Default : Да
    Forced : Нет
    Аудио #1
    Идентификатор : 2
    Формат : AC-3
    Формат/Информация : Audio Coding 3
    Расширение режима : CM (complete main)
    Параметр Endianness формата : Big
    Идентификатор кодека : A_AC3
    Продолжительность : 2 ч. 28 м.
    Вид битрейта : Постоянный
    Битрейт : 448 Кбит/сек
    Каналы : 6 каналов
    Расположение каналов : Front: L C R, Side: L R, LFE
    Частота : 48,0 КГц
    Битовая глубина : 16 бит
    Метод сжатия : С потерями
    Размер потока : 477 Мбайт (16%)
    Заголовок : Русский, многоголосый закадровый
    Язык : Russian
    Default : Да
    Forced : Нет
    Аудио #2
    Идентификатор : 3
    Формат : AC-3
    Формат/Информация : Audio Coding 3
    Расширение режима : CM (complete main)
    Параметр Endianness формата : Big
    Идентификатор кодека : A_AC3
    Продолжительность : 2 ч. 28 м.
    Вид битрейта : Постоянный
    Битрейт : 384 Кбит/сек
    Каналы : 6 каналов
    Расположение каналов : Front: L C R, Side: L R, LFE
    Частота : 48,0 КГц
    Битовая глубина : 16 бит
    Метод сжатия : С потерями
    Размер потока : 409 Мбайт (14%)
    Заголовок : Английский
    Язык : English
    Default : Нет
    Forced : Да
    Меню
    00:00:00.000 : en:00:00:00.000
    00:15:56.080 : en:00:15:56.080
    00:26:45.145 : en:00:26:45.145
    00:42:53.196 : en:00:42:53.196
    00:52:26.435 : en:00:52:26.435
    01:12:08.157 : en:01:12:08.157
    01:30:30.592 : en:01:30:30.592
    01:39:08.067 : en:01:39:08.067
    01:51:55.167 : en:01:51:55.167
    02:11:17.495 : en:02:11:17.495

    Скриншот c названием фильма

    Скриншоты

    Рейтинг МРАА

    R - лицам до 17 лет обязательно присутствие взрослого

    Номинации

    Оскар, 2015 год - Лучший адаптированный сценарий, Лучшие костюмы
    Золотой глобус, 2015 год - Лучшая мужская роль (комедия или мюзикл) (Хоакин Феникс)
    Скачать .torrent

    Скачать торрент-файл бесплатно и на максимальной скорости!

    Как скачивать? · Что такое торрент? · Рейтинг и ограничения

    !ВНИМАНИЕ!
    Сайт не распространяет и не хранит электронные версии произведений, а занимается лишь лишь предоставлением доступа к создаваемому пользователями каталогу ссылок на торрент-файлы, которые содержат только списки хеш-сумм, убедительная просьба с жалобами обращаться напрямую к пользователю. Файлы для обмена на трекере предоставлены пользователями сайта, и администрация не несёт ответственности за их содержание. Просьба не заливать файлы, защищенные авторскими правами, а также файлы нелегального содержания!


    _________________
    [Профиль] [ЛС]
    Показать сообщения:    
    Ответить на тему

    Текущее время: Сегодня, в 10:07

    Часовой пояс: GMT + 2



    Вы не можете начинать темы
    Вы не можете отвечать на сообщения
    Вы не можете редактировать свои сообщения
    Вы не можете удалять свои сообщения
    Вы не можете голосовать в опросах
    Вы не можете прикреплять файлы к сообщениям
    Вы не можете скачивать файлы