Register  ·  Log in
Forgot password?

  • Морской пехотинец 4 / The Marine 4: Moving Target (Уильям Кауфман / William Kaufman) [2015, США, боевик, триллер, HDRip] MVO (iTunes)

    Reply to topic
    Author Message


    Post 23-Apr-2015 22:24



    Морской пехотинец 4 / The Marine 4: Moving Target
    Страна: США
    Жанр: боевик, триллер
    Год выпуска: 2015
    Продолжительность: 01:30:14
    Перевод: Профессиональный (многоголосый закадровый) iTunes
    Cубтитры: нет
    Оригинальная аудиодорожка: нет
    Режиссер: Уильям Кауфман / William Kaufman
    В ролях: Мелисса Роксбур, Майк Мизанин, Мэттью МакКоулл, Пол МакДжиллион, Даниэль Муане, Кертис Караваджо, Фрейзер Айтчесон, Джош Блэкер, Примо Аллон, Тодд Дженкинс
    Описание: В рамках частной практики Картер берется за новое задание: защиту "особо ценного груза" - прекрасной осведомительницы, пытающейся разоблачить коррумпированного поставщика оборонного комплекса. Вооруженные до зубов наемники идут по ее следам, готовые уничтожить каждого, кто встанет у них на пути - но безжалостный боец-профи не боится бросить им вызов.
    Качество видео: HDRip (исходник не известен)
    Формат видео: AVI
    Видео: Xvid 720x400 23.98fps 1 775 Kbps
    Аудио: Dolby AC3 48000Hz 6ch 384kbps


    Format : AVI
    Format/Info : Audio Video Interleave
    File size : 1.37 GiB
    Duration : 1h 30mn
    Overall bit rate : 2 168 Kbps
    Writing application : VirtualDubMod (build 2540/release)
    Writing library : VirtualDubMod build 2540/release
    ID : 0
    Format : MPEG-4 Visual
    Format profile : Advanced Simple@L5
    Format settings, BVOP : Yes
    Format settings, QPel : No
    Format settings, GMC : No warppoints
    Format settings, Matrix : Default (MPEG)
    Codec ID : XVID
    Codec ID/Hint : XviD
    Duration : 1h 30mn
    Bit rate : 1 775 Kbps
    Width : 720 pixels
    Height : 400 pixels
    Display aspect ratio : 16:9
    Frame rate : 23.976 fps
    Resolution : 8 bits
    Colorimetry : 4:2:0
    Scan type : Progressive
    Bits/(Pixel*Frame) : 0.257
    Stream size : 1.12 GiB (82%)
    Writing library : XviD 1.2.1 (UTC 2008-12-04)
    ID : 1
    Format : AC-3
    Format/Info : Audio Coding 3
    Codec ID : 2000
    Duration : 1h 30mn
    Bit rate mode : Constant
    Bit rate : 384 Kbps
    Channel(s) : 6 channels
    Channel positions : Front: L C R, Surround: L R, LFE
    Sampling rate : 48.0 KHz
    Stream size : 248 MiB (18%)
    Alignment : Split accross interleaves
    Interleave, duration : 42 ms (1.00 video frame)
    Interleave, preload duration : 500 ms

    Скриншот c названием фильма


    Download .torrent

    Download free and at maximum speed!

    How to Download? · What is a torrent? · Ratings and Limitations

    The site does not extend and does not store electronic(digital) versions of products, and only gives access to a reference catalogue created by users on torrent-files which contain only lists of the hash-sums, the earnest entreaty, with complaints(abuse) to access directly to the user. Files for an exchange on tracker are given by users of a site, and the administration does not bear the responsibility for their maintenance. The request to not fill in the files protected by copyrights, and also files of the illegal maintenance!

    [Profile] [PM]
    Display posts from previous:    
    Reply to topic

    The time now is: Today 16:53

    All times are GMT + 3 Hours

    You cannot post new topics in this forum
    You cannot reply to topics in this forum
    You cannot edit your posts in this forum
    You cannot delete your posts in this forum
    You cannot vote in polls in this forum
    You cannot attach files in this forum
    You cannot download files in this forum