BitTorrentTracker PerecTracker.org
BitTorrentTracker PerecTracker.org
    
Регистрация  ·  Вход
 
 · 
Забыли пароль?

  • Фальсификатор / The Forger (Филип Мартин / Philip Martin) [2014, США, триллер, драма, криминал, HDRip] DVO

    Ответить на тему
     
    Автор Сообщение

    Light

    Создавать темы 23-Апр-2015 21:24

           

    [Цитировать]

    Фальсификатор / The Forger
    Страна: США
    Жанр: триллер, драма, криминал
    Год выпуска: 2014
    Продолжительность: 01:35:31
    Перевод: Любительский (двухголосый закадровый) Cладкая парочка
    Cубтитры: нет
    Режиссер: Филип Мартин / Philip Martin
    В ролях: Джон Траволта, Эбигейл Спенсер, Дженнифер Или, Кристофер Пламмер, Энсон Маунт, Тай Шеридан, Трэвис Аарон, Линдон Смит, Скайлер Райт, Кэти Саловски
    Описание: Главный герой фильма — Рэй Каттер — художник от бога и мошенник во втором поколении. Он договаривается о досрочном освобождении из тюремного заключения, чтобы «уйти на покой» и наладить отношения с семьей. В обмен за помощь с выходом из тюрьмы он должен выполнить еще одну работу, сделать подделку, которой до него еще никто никогда не делал.
    Сэмпл: http://sendfile.su/1110636
    Качество видео: HDRip
    Формат видео: AVI
    Видео: 720x304 (2.37:1), 24 fps, XviD build 50 ~1591 kbps avg, 0.30 bit/pixel
    Аудио: 48 kHz, AC3 Dolby Digital, 3/2 (L,C,R,l,r) + LFE ch, ~448 kbps

    MediaInfo

    Общее
    Полное имя : E:\MOVIES\F4ls1f1k4t0r.2014.P.HDRip.1400MB.avi
    Формат : AVI
    Формат/Информация : Audio Video Interleave
    Размер файла : 1,37 Гбайт
    Продолжительность : 1 ч. 35 м.
    Общий поток : 2049 Кбит/сек
    Программа кодирования : VirtualDubMod 1.5.10.2 (build 2540/release)
    Библиотека кодирования : VirtualDubMod build 2540/release
    Видео
    Идентификатор : 0
    Формат : MPEG-4 Visual
    Профиль формата : Advanced Simple@L5
    Параметр BVOP формата : 2
    Параметр QPel формата : Нет
    Параметр GMC формата : Без точки перехода
    Параметр матрицы формата : Default (MPEG)
    Идентификатор кодека : XVID
    Идентификатор кодека/Подсказка : XviD
    Продолжительность : 1 ч. 35 м.
    Битрейт : 1592 Кбит/сек
    Ширина : 720 пикселей
    Высота : 304 пикселя
    Соотношение сторон : 2,35:1
    Частота кадров : 24,000 кадра/сек
    Цветовое пространство : YUV
    Субдискретизация насыщенности : 4:2:0
    Битовая глубина : 8 бит
    Тип развёртки : Прогрессивная
    Метод сжатия : С потерями
    Бит/(Пиксели*Кадры) : 0.303
    Размер потока : 1,06 Гбайт (78%)
    Библиотека кодирования : XviD 1.2.1 (UTC 2008-12-04)
    Аудио
    Идентификатор : 1
    Формат : AC-3
    Формат/Информация : Audio Coding 3
    Расширение режима : CM (complete main)
    Параметр Endianness формата : Big
    Идентификатор кодека : 2000
    Продолжительность : 1 ч. 35 м.
    Вид битрейта : Постоянный
    Битрейт : 448 Кбит/сек
    Каналы : 6 каналов
    Расположение каналов : Front: L C R, Side: L R, LFE
    Частота : 48,0 КГц
    Битовая глубина : 16 бит
    Метод сжатия : С потерями
    Размер потока : 306 Мбайт (22%)
    Выравнивание : Разделение по промежуткам
    Продолжительность промежутка : 42 мс. (1,00 видеокадр)
    Время предзагрузки промежутка : 500 мс.

    Скриншот c названием фильма

    Скриншоты

    Скачать .torrent

    Скачать торрент-файл бесплатно и на максимальной скорости!

    Как скачивать? · Что такое торрент? · Рейтинг и ограничения

    !ВНИМАНИЕ!
    Сайт не распространяет и не хранит электронные версии произведений, а занимается лишь лишь предоставлением доступа к создаваемому пользователями каталогу ссылок на торрент-файлы, которые содержат только списки хеш-сумм, убедительная просьба с жалобами обращаться напрямую к пользователю. Файлы для обмена на трекере предоставлены пользователями сайта, и администрация не несёт ответственности за их содержание. Просьба не заливать файлы, защищенные авторскими правами, а также файлы нелегального содержания!


    _________________
    [Профиль] [ЛС]
    Показать сообщения:    
    Ответить на тему

    Текущее время: Сегодня, в 16:08

    Часовой пояс: GMT + 2



    Вы не можете начинать темы
    Вы не можете отвечать на сообщения
    Вы не можете редактировать свои сообщения
    Вы не можете удалять свои сообщения
    Вы не можете голосовать в опросах
    Вы не можете прикреплять файлы к сообщениям
    Вы не можете скачивать файлы