BitTorrentTracker PerecTracker.org
BitTorrentTracker PerecTracker.org
    
Регистрация  ·  Вход
 
 · 
Забыли пароль?

  • [ATV3] Седьмой сын / Seventh Son (Сергей Бодров / ) [2014, США, Великобритания, Канада, Фэнтези, приключения, BDRip, HD (1080p)] DUB + Original + sub (rus, eng, ukr)

    Ответить на тему
     
    Автор Сообщение

    rechyn

    Создавать темы 23-Апр-2015 04:36

           

    [Цитировать]

    Седьмой сын / Seventh Son
    -
    5.931 / 10 5.50 / 10
    -Год выпуска: 2014
    Страна: США, Великобритания, Канада
    Жанр: Фэнтези, приключения
    Продолжительность: 01:41:59
    Перевод: Профессиональный (дублированный) (Blu-ray CEE)
    Оригинальная аудиодорожка: Есть
    Cубтитры: Русские, Английские, Украинские
    Режиссёр: Сергей Бодров
    Сценарий: Чарльз Ливитт, Стивен Найт, Мэтт Гринберг
    Продюсер: Бэзил Иваник, Томас Тулл, Лайонел Уигрэм
    Оператор: Ньютон Томас Сигел
    Композитор: Марко Белтрами
    Художник: Данте Ферретти, Мария-Тереза Барбассо, Дмитрий Капуани
    Монтаж: Джим Пейдж, Пол Рубелл
    В ролях: Бен Барнс, Джефф Бриджес, Джулианна Мур, Алисия Викандер, Антье Трауэ, Оливия Уильямс, Джон ДеСантис, Кит Харингтон, Джимон Хонсу, Джерард Планкет
    Бюджет: $100 000 000
    Сборы в США: $17 223 265
    Сборы в мире: + $93 400 000 = $110 623 265
    Сборы в России: $18 580 194
    Мировая премьера: 17 декабря 2014
    Премьера (РФ): 1 января 2015, «UPI»
    Релиз на DVD: 30 апреля 2015, «Двадцатый Век Фокс СНГ»
    Релиз на Blu-Ray: 30 апреля 2015, «Двадцатый Век Фокс СНГ»
    Описание: Рассказ в фильме пойдет про парня, который, так уж вышло, стал седьмым сыном седьмого сына. А только такой человек может стать ведьмаком. Но этого недостаточно, чтобы именовать себя так — необходимо пройти массу тренировок, а также усердно учиться. Ведь главное оружие ведьмака — это его ум. Хоть в народе их не любят, но кто-то же обязан убивать нечисть, хранить землю от сил зла и делать всю грязную работу? Юный Том Уорд попробует стать тем самым учеником ведьмака.-Качество исходника: HDClub, Седьмой сын / Seventh Son (2014) Blu-ray CEE 1080p AVC DTS 5.1-AmasyHD
    Качество: BDRip
    Тип: HD (1080p)
    Контейнер: M4V
    Видео: H.264, 1920x800, 2.40:1, 8 000 Kbps, 23.976 fps
    Аудио 1: Русский/Профессиональный (дублированный) (Blu-ray CEE), AAC / 2.0 / 158 Kbps / 48.0 KHz
    Аудио 2: Английский/Оригинальная дорожка , AAC / 2.0 / 158 Kbps / 48.0 KHz
    Аудио 3: Русский/Профессиональный (дублированный) (Blu-ray CEE), AC-3 / 5.1 / 640 Kbps / 48.0 KHz
    Аудио 4: Английский/Оригинальная дорожка , AC-3 / 5.1 / 640 Kbps / 48.0 KHz
    Субтитры 1: Русские полные
    Субтитры 2: Английские полные
    Субтитры 3: Украинские полные
    -

    iTunes Meta Tags

    Sort Name: Seventh Son
    XID: Apple:vendor_id:2014-408396
    contentID: 956943599
    Copyright: © 2014 Universal Studios. All Rights Reserved.
    Screenwriters: Чарльз Ливитт, Стивен Найт, Мэтт Гринберг
    Producers: Бэзил Иваник, Томас Тулл, Лайонел Уигрэм
    Director: Сергей Бодров
    Cast: Бен Барнс, Джефф Бриджес, Джулианна Мур, Алисия Викандер, Антье Трауэ, Оливия Уильямс, Джон ДеСантис, Кит Харингтон, Джимон Хонсу, Джерард Планкет, Владимир Антоник, Владимир Антипов
    Studio: Universal Pictures
    Rating: 0
    Long Description: Рассказ в фильме пойдет про парня, который, так уж вышло, стал седьмым сыном седьмого сына. А только такой человек может стать ведьмаком. Но этого недостаточно, чтобы именовать себя так - необходимо пройти массу тренировок, а также усердно учиться. Ведь главное оружие ведьмака - это его ум. Хоть в народе их не любят, но кто-то же обязан убивать нечисть, хранить землю от сил зла и делать всю грязную работу? Юный Том Уорд попробует стать тем самым учеником ведьмака.
    Description: Рассказ в фильме пойдет про парня, который, так уж вышло, стал седьмым сыном седьмого сына. А только такой человек может стать ведьмаком. Но этого недостаточно, чтобы именовать себя так - необходимо пройти массу тренировок, а также усердно учиться. Ведь главное оружие ведьмака - это его ум. Хоть в народе их не любят, но кто-то же обязан убивать нечисть, хранить землю от сил зла и делать всю грязную работу? Юный Том Уорд попробует стать тем самым учеником ведьмака.
    Release Date: 2014-12-17T08:00:00Z
    Genre: Action & Adventure
    Artist: Sergei Bodrov
    Name: Seventh Son

    MediaInfo

    General
    Complete name                            : /Users/imac/HandBrake/Seventh Son (1080p HD).m4v
    Format                                   : MPEG-4
    Codec ID                                 : M4V
    File size                                : 6.83 GiB
    Duration                                 : 1h 41mn
    Overall bit rate mode                    : Variable
    Overall bit rate                         : 9 589 Kbps
    Movie name                               : Seventh Son
    Performer                                : Sergei Bodrov
    Genre                                    : Action & Adventure
    Recorded date                            : UTC 2014-12-17 08:00:00
    Encoded date                             : UTC 2015-04-22 22:56:09
    Tagged date                              : UTC 2015-04-22 22:58:45
    Copyright                                : © 2014 Universal Studios. All Rights Reserved.
    Cover                                    : Yes
    sonm                                     : Seventh Son
    desc                                     : Рассказ в фильме пойдет про парня, который, так уж вышло, стал седьмым сыном седьмого сына. А только такой человек может стать ведьмаком. Но этого недостаточно, чтобы именовать себя так - необходимо пройти массу тренировок, а также усердно учиться. Ведь главное оружие ведьмака - это его ум. Хоть в народе их не любят, но кто-то же обязан убивать нечисть, хранить землю от сил зла и делать всю грязную работу? Юный Том Уорд попробует стать тем самым учеником ведьмака.
    ldes                                     : Рассказ в фильме пойдет про парня, который, так уж вышло, стал седьмым сыном седьмого сына. А только такой человек может стать ведьмаком. Но этого недостаточно, чтобы именовать себя так - необходимо пройти массу тренировок, а также усердно учиться. Ведь главное оружие ведьмака - это его ум. Хоть в народе их не любят, но кто-то же обязан убивать нечисть, хранить землю от сил зла и делать всю грязную работу? Юный Том Уорд попробует стать тем самым учеником ведьмака.
    hdvd                                     : 2
    stik                                     : 9
    rtng                                     : 0
    cnID                                     : 956943599
    xid                                      : Apple:vendor_id:2014-408396
    iTunEXTC                                 : mpaa|Unrated|???|
    iTunMOVI                                 : <?xml version=\"1.0\" encoding=\"UTF-8\"?> / <!DOCTYPE plist PUBLIC \"-//Apple//DTD PLIST 1.0//EN\" \"http://anonym.to/?http://www.apple.com/DTDs/PropertyList-1.0.dtd\"> / <plist version=\"1.0\"> / <dict> /  <key>cast</key> /  <array> /   <dict> /    <key>name</key> /    <string>Бен Барнс</string> /   </dict> /   <dict> /    <key>name</key> /    <string>Джефф Бриджес</string> /   </dict> /   <dict> /    <key>name</key> /    <string>Джулианна Мур</string> /   </dict> /   <dict> /    <key>name</key> /    <string>Алисия Викандер</string> /   </dict> /   <dict> /    <key>name</key> /    <string>Антье Трауэ</string> /   </dict> /   <dict> /    <key>name</key> /    <string>Оливия Уильямс</string> /   </dict> /   <dict> /    <key>name</key> /    <string>Джон ДеСантис</string> /   </dict> /   <dict> /    <key>name</key> /    <string>Кит Харингтон</string> /   </dict> /   <dict> /    <key>name</key> /    <string>Джимон Хонсу</string> /   </dict> /   <dict> /    <key>name</key> /    <string>Джерард Планкет</string> /   </dict> /   <dict> /    <key>name</key> /    <string>Владимир Антоник</string> /   </dict> /   <dict> /    <key>name</key> /    <string>Владимир Антипов</string> /   </dict> /  </array> /  <key>directors</key> /  <array> /   <dict> /    <key>name</key> /    <string>Сергей Бодров</string> /   </dict> /  </array> /  <key>producers</key> /  <array> /   <dict> /    <key>name</key> /    <string>Бэзил Иваник</string> /   </dict> /   <dict> /    <key>name</key> /    <string>Томас Тулл</string> /   </dict> /   <dict> /    <key>name</key> /    <string>Лайонел Уигрэм</string> /   </dict> /  </array> /  <key>screenwriters</key> /  <array> /   <dict> /    <key>name</key> /    <string>Чарльз Ливитт</string> /   </dict> /   <dict> /    <key>name</key> /    <string>Стивен Найт</string> /   </dict> /   <dict> /    <key>name</key> /    <string>Мэтт Гринберг</string> /   </dict> /  </array> /  <key>studio</key> /  <string>Universal Pictures</string> / </dict> / </plist>
    Video #1
    ID                                       : 1
    Format                                   : AVC
    Format/Info                              : Advanced Video Codec
    Format profile                           : High@L4.0
    Format settings, CABAC                   : Yes
    Format settings, ReFrames                : 4 frames
    Codec ID                                 : avc1
    Codec ID/Info                            : Advanced Video Coding
    Duration                                 : 1h 41mn
    Bit rate mode                            : Variable
    Bit rate                                 : 8 000 Kbps
    Width                                    : 1 920 pixels
    Height                                   : 800 pixels
    Display aspect ratio                     : 2.40:1
    Frame rate mode                          : Variable
    Frame rate                               : 23.976 fps
    Minimum frame rate                       : 11.989 fps
    Maximum frame rate                       : 23.981 fps
    Color space                              : YUV
    Chroma subsampling                       : 4:2:0
    Bit depth                                : 8 bits
    Scan type                                : Progressive
    Bits/(Pixel*Frame)                       : 0.217
    Stream size                              : 5.69 GiB (83%)
    Writing library                          : x264 core 142 r2479 dd79a61
    Encoding settings                        : cabac=1 / ref=4 / deblock=1:-2:-2 / analyse=0x3:0x133 / me=umh / subme=10 / psy=1 / psy_rd=1.00:0.15 / mixed_ref=1 / me_range=32 / chroma_me=1 / trellis=2 / 8x8dct=1 / cqm=0 / deadzone=21,11 / fast_pskip=0 / chroma_qp_offset=-3 / threads=36 / lookahead_threads=6 / sliced_threads=0 / nr=0 / decimate=0 / interlaced=0 / bluray_compat=0 / constrained_intra=0 / bframes=16 / b_pyramid=2 / b_adapt=2 / b_bias=0 / direct=3 / weightb=1 / open_gop=0 / weightp=2 / keyint=240 / keyint_min=24 / scenecut=40 / intra_refresh=0 / rc_lookahead=60 / rc=2pass / mbtree=1 / bitrate=8000 / ratetol=1.0 / qcomp=0.70 / qpmin=0 / qpmax=69 / qpstep=4 / cplxblur=20.0 / qblur=0.5 / vbv_maxrate=25000 / vbv_bufsize=25000 / nal_hrd=none / filler=0 / ip_ratio=1.40 / aq=1:1.00
    Language                                 : English
    Encoded date                             : UTC 2015-04-22 22:56:09
    Tagged date                              : UTC 2015-04-22 22:56:20
    Color primaries                          : BT.709-5, BT.1361, IEC 61966-2-4, SMPTE RP177
    Transfer characteristics                 : BT.709-5, BT.1361
    Matrix coefficients                      : BT.709-5, BT.1361, IEC 61966-2-4 709, SMPTE RP177
    Video #2
    ID                                       : 10
    Format                                   : JPEG
    Codec ID                                 : jpeg
    Duration                                 : 1h 41mn
    Bit rate mode                            : Variable
    Bit rate                                 : 828 bps
    Width                                    : 640 pixels
    Height                                   : 266 pixels
    Display aspect ratio                     : 2.40:1
    Frame rate mode                          : Variable
    Frame rate                               : 0.003 fps
    Minimum frame rate                       : 0.002 fps
    Maximum frame rate                       : 0.006 fps
    Color space                              : YUV
    Chroma subsampling                       : 4:2:0
    Bit depth                                : 8 bits
    Compression mode                         : Lossy
    Bits/(Pixel*Frame)                       : 1.621
    Stream size                              : 674 KiB (0%)
    Language                                 : English
    Encoded date                             : UTC 2015-04-22 22:56:31
    Tagged date                              : UTC 2015-04-22 22:56:32
    Audio #1
    ID                                       : 2
    Format                                   : AAC
    Format/Info                              : Advanced Audio Codec
    Format profile                           : LC
    Codec ID                                 : 40
    Duration                                 : 1h 41mn
    Bit rate mode                            : Variable
    Bit rate                                 : 158 Kbps
    Maximum bit rate                         : 228 Kbps
    Channel(s)                               : 2 channels
    Channel positions                        : Front: L R
    Sampling rate                            : 48.0 KHz
    Compression mode                         : Lossy
    Stream size                              : 115 MiB (2%)
    Language                                 : Russian
    Encoded date                             : UTC 2015-04-22 22:56:09
    Tagged date                              : UTC 2015-04-22 22:56:23
    Audio #2
    ID                                       : 3
    Format                                   : AAC
    Format/Info                              : Advanced Audio Codec
    Format profile                           : LC
    Codec ID                                 : 40
    Duration                                 : 1h 41mn
    Bit rate mode                            : Variable
    Bit rate                                 : 158 Kbps
    Maximum bit rate                         : 218 Kbps
    Channel(s)                               : 2 channels
    Channel positions                        : Front: L R
    Sampling rate                            : 48.0 KHz
    Compression mode                         : Lossy
    Stream size                              : 115 MiB (2%)
    Language                                 : English
    Encoded date                             : UTC 2015-04-22 22:56:09
    Tagged date                              : UTC 2015-04-22 22:56:23
    Audio #3
    ID                                       : 4
    Format                                   : AC-3
    Format/Info                              : Audio Coding 3
    Mode extension                           : CM (complete main)
    Format settings, Endianness              : Big
    Codec ID                                 : ac-3
    Duration                                 : 1h 41mn
    Bit rate mode                            : Constant
    Bit rate                                 : 640 Kbps
    Channel(s)                               : 6 channels
    Channel positions                        : Front: L C R, Side: L R, LFE
    Sampling rate                            : 48.0 KHz
    Bit depth                                : 16 bits
    Compression mode                         : Lossy
    Stream size                              : 467 MiB (7%)
    Language                                 : Russian
    Encoded date                             : UTC 2015-04-22 22:56:09
    Tagged date                              : UTC 2015-04-22 22:56:21
    Audio #4
    ID                                       : 5
    Format                                   : AC-3
    Format/Info                              : Audio Coding 3
    Mode extension                           : CM (complete main)
    Format settings, Endianness              : Big
    Codec ID                                 : ac-3
    Duration                                 : 1h 41mn
    Bit rate mode                            : Constant
    Bit rate                                 : 640 Kbps
    Channel(s)                               : 6 channels
    Channel positions                        : Front: L C R, Side: L R, LFE
    Sampling rate                            : 48.0 KHz
    Bit depth                                : 16 bits
    Compression mode                         : Lossy
    Stream size                              : 467 MiB (7%)
    Language                                 : English
    Encoded date                             : UTC 2015-04-22 22:56:09
    Tagged date                              : UTC 2015-04-22 22:56:21
    Text #1
    ID                                       : 6
    Format                                   : Timed text
    Muxing mode                              : sbtl
    Codec ID                                 : tx3g
    Duration                                 : 1h 41mn
    Bit rate mode                            : Variable
    Bit rate                                 : 42 bps
    Stream size                              : 31.7 KiB (0%)
    Language                                 : Russian
    Encoded date                             : UTC 2015-04-22 22:56:09
    Tagged date                              : UTC 2015-04-22 22:56:09
    Text #2
    ID                                       : 7
    Format                                   : Timed text
    Muxing mode                              : sbtl
    Codec ID                                 : tx3g
    Duration                                 : 1h 33mn
    Bit rate mode                            : Variable
    Bit rate                                 : 42 bps
    Stream size                              : 28.4 KiB (0%)
    Language                                 : English
    Encoded date                             : UTC 2015-04-22 22:56:09
    Tagged date                              : UTC 2015-04-22 22:56:09
    Text #3
    ID                                       : 8
    Format                                   : Timed text
    Muxing mode                              : sbtl
    Codec ID                                 : tx3g
    Duration                                 : 1h 41mn
    Bit rate mode                            : Variable
    Bit rate                                 : 41 bps
    Stream size                              : 30.3 KiB (0%)
    Language                                 : Ukrainian
    Encoded date                             : UTC 2015-04-22 22:56:09
    Tagged date                              : UTC 2015-04-22 22:56:09
    Text #4
    ID                                       : 9
    Format                                   : Apple text
    Codec ID                                 : text
    Duration                                 : 1h 41mn
    Bit rate mode                            : Variable
    Bit rate                                 : 1 bps
    Stream size                              : 471 Bytes (0%)
    Language                                 : English
    Encoded date                             : UTC 2015-04-22 22:56:23
    Tagged date                              : UTC 2015-04-22 22:56:23
    Menu
    00:00:00.000                             : Chapter 1
    00:04:50.457                             : Chapter 2
    00:10:28.586                             : Chapter 3
    00:16:40.625                             : Chapter 4
    00:22:40.401                             : Chapter 5
    00:27:40.492                             : Chapter 6
    00:30:17.733                             : Chapter 7
    00:36:45.245                             : Chapter 8
    00:42:37.430                             : Chapter 9
    00:49:54.783                             : Chapter 10
    00:54:44.990                             : Chapter 11
    00:57:48.590                             : Chapter 12
    01:02:53.186                             : Chapter 13
    01:06:54.010                             : Chapter 14
    01:11:29.327                             : Chapter 15
    01:18:36.962                             : Chapter 16
    01:22:10.342                             : Chapter 17
    01:25:32.711                             : Chapter 18
    01:30:15.076                             : Chapter 19
    01:33:21.137                             : Chapter 20

    x264 лог

    x264 [info]: frame I:940   Avg QP:16.05  size:209751
    x264 [info]: frame P:38282 Avg QP:18.86  size: 69816
    x264 [info]: frame B:107503 Avg QP:20.04  size: 30112
    x264 [info]: consecutive B-frames:  4.0%  8.8% 12.9% 15.5% 14.9% 40.0%  2.8%  0.4%  0.3%  0.2%  0.1%  0.0%  0.0%  0.0%  0.0%  0.0%  0.1%
    x264 [info]: mb I  I16..4: 33.1% 49.1% 17.7%
    x264 [info]: mb P  I16..4: 11.4% 17.4%  1.7%  P16..4: 41.9% 14.6% 10.1%  0.3%  0.1%    skip: 2.5%
    x264 [info]: mb B  I16..4:  4.0%  2.3%  0.4%  B16..8: 38.0%  8.6%  2.0%  direct: 9.4%  skip:35.4%  L0:41.8% L1:44.0% BI:14.1%
    x264 [info]: 8x8 transform intra:48.4% inter:50.1%
    x264 [info]: direct mvs  spatial:96.2% temporal:3.8%
    x264 [info]: coded y,uvDC,uvAC intra: 91.0% 82.5% 60.7% inter: 30.5% 29.2% 11.1%
    x264 [info]: i16 v,h,dc,p: 11%  7% 54% 28%
    x264 [info]: i8 v,h,dc,ddl,ddr,vr,hd,vl,hu:  9% 10% 10%  9% 12% 12% 13% 12% 14%
    x264 [info]: i4 v,h,dc,ddl,ddr,vr,hd,vl,hu:  8%  9% 10%  8% 13% 12% 14% 10% 14%
    x264 [info]: i8c dc,h,v,p: 49% 20% 17% 14%
    x264 [info]: Weighted P-Frames: Y:4.0% UV:2.3%
    x264 [info]: ref P L0: 51.8% 10.6% 26.3%  9.5%  1.7%  0.0%
    x264 [info]: ref B L0: 84.2% 13.4%  2.5%
    x264 [info]: ref B L1: 92.9%  7.1%
    x264 [info]: kb/s:7983.35

    Скриншоты

    -

    Релиз подготовлен для просмотра на Apple TV, iPad, iPhone, iPod Touch.
    Для просмотра данного релиза на компьютере с ОС Windows рекомендуется использовать VLC media player
    Скачать .torrent

    Скачать торрент-файл бесплатно и на максимальной скорости!

    Как скачивать? · Что такое торрент? · Рейтинг и ограничения

    !ВНИМАНИЕ!
    Сайт не распространяет и не хранит электронные версии произведений, а занимается лишь лишь предоставлением доступа к создаваемому пользователями каталогу ссылок на торрент-файлы, которые содержат только списки хеш-сумм, убедительная просьба с жалобами обращаться напрямую к пользователю. Файлы для обмена на трекере предоставлены пользователями сайта, и администрация не несёт ответственности за их содержание. Просьба не заливать файлы, защищенные авторскими правами, а также файлы нелегального содержания!


    _________________
    [Профиль] [ЛС]
    Показать сообщения:    
    Ответить на тему

    Текущее время: Сегодня, в 01:51

    Часовой пояс: GMT + 2



    Вы не можете начинать темы
    Вы не можете отвечать на сообщения
    Вы не можете редактировать свои сообщения
    Вы не можете удалять свои сообщения
    Вы не можете голосовать в опросах
    Вы не можете прикреплять файлы к сообщениям
    Вы не можете скачивать файлы