BitTorrentTracker PerecTracker.org
BitTorrentTracker PerecTracker.org
    
Регистрация  ·  Вход
 
 · 
Забыли пароль?

  • Шутки ангела (Евгений Аксёнов) [2013, Россия, комедия, HDTV 1080i] + Original Rus

    Ответить на тему
     
    Автор Сообщение

    rechyn

    Создавать темы 22-Апр-2015 20:12

           

    [Цитировать]

    Шутки ангела
    Страна: Россия
    Студия: Land Cinema
    Жанр: комедия
    Год выпуска: 2013
    Продолжительность: 01:26:03
    Перевод: Не требуется
    Cубтитры: нет
    Оригинальная аудиодорожка: русский
    Режиссер: Евгений Аксёнов
    В ролях: Артур Ваха, Ростислав Бершауэр, Мария Бортник, Владимир Фоков, Алексей Федотов, Елена Купрашевич, Алена Силова, Геннадий Смирнов, Ольга Кирсанова-Миропольская, Алексей Васильев, Сергей Бызгу, Татьяна Иванова, Марина Ордина, Олег Петров, Данил Кокин, Владимир Маслаков, Александр Михалев, Дмитрий Петрушков, Александр Есаулов, Максим Крупский, Игорь Ключников, Юрий Яковлев, Екатерина Гудожник, Андрей Белоцерковский
    Описание: Жил-был тиран и самодур, бизнесмен Мухин. Так бы дальше и жил, мучая домочадцев и подчиненных, если бы… Если бы не началась за ним охота тайного убийцы, не было у него верного друга Пчелкина, надежного охранника Михалыча и маленькой дочки, которая подружилась с ангелом...
    Сэмпл: http://multi-up.com/1044819
    Тип релиза: HDTV 1080i
    Контейнер: TS
    Видео: AVC, 1920x1080, (16:9), 25 fps, 7.3 Mbps
    Аудио: Русский, MP2, 48 kHz, 2 ch, 320 kbps

    MediaInfo

    General
    ID : 1 (0x1)
    Complete name : C:\Шутки ангела_2013_HDTV 1080i_RU.ts
    Format : MPEG-TS
    File size : 4.90 GiB
    Duration : 1h 26mn
    Overall bit rate mode : Variable
    Overall bit rate : 8 075 Kbps
    Video
    ID : 1681 (0x691)
    Menu ID : 1680 (0x690)
    Format : AVC
    Format/Info : Advanced Video Codec
    Format profile : Main@L4
    Format settings, CABAC : Yes
    Format settings, ReFrames : 4 frames
    Format settings, GOP : M=4, N=24
    Codec ID : 27
    Duration : 1h 26mn
    Bit rate : 7 353 Kbps
    Width : 1 920 pixels
    Height : 1 080 pixels
    Display aspect ratio : 16:9
    Frame rate : 25.000 fps
    Color space : YUV
    Chroma subsampling : 4:2:0
    Bit depth : 8 bits
    Scan type : Interlaced
    Scan order : Top Field First
    Bits/(Pixel*Frame) : 0.142
    Stream size : 4.46 GiB (91%)
    Color range : Limited
    Color primaries : BT.709
    Transfer characteristics : BT.709
    Matrix coefficients : BT.709
    Audio
    ID : 1682 (0x692)
    Menu ID : 1680 (0x690)
    Format : MPEG Audio
    Format version : Version 1
    Format profile : Layer 2
    Codec ID : 3
    Duration : 1h 26mn
    Bit rate mode : Constant
    Bit rate : 320 Kbps
    Channel(s) : 2 channels
    Sampling rate : 48.0 KHz
    Compression mode : Lossy
    Stream size : 199 MiB (4%)
    Language : Russian

    Скриншоты

    Скачать .torrent

    Скачать торрент-файл бесплатно и на максимальной скорости!

    Как скачивать? · Что такое торрент? · Рейтинг и ограничения

    !ВНИМАНИЕ!
    Сайт не распространяет и не хранит электронные версии произведений, а занимается лишь лишь предоставлением доступа к создаваемому пользователями каталогу ссылок на торрент-файлы, которые содержат только списки хеш-сумм, убедительная просьба с жалобами обращаться напрямую к пользователю. Файлы для обмена на трекере предоставлены пользователями сайта, и администрация не несёт ответственности за их содержание. Просьба не заливать файлы, защищенные авторскими правами, а также файлы нелегального содержания!


    _________________
    [Профиль] [ЛС]
    Показать сообщения:    
    Ответить на тему

    Текущее время: Сегодня, в 14:45

    Часовой пояс: GMT + 2



    Вы не можете начинать темы
    Вы не можете отвечать на сообщения
    Вы не можете редактировать свои сообщения
    Вы не можете удалять свои сообщения
    Вы не можете голосовать в опросах
    Вы не можете прикреплять файлы к сообщениям
    Вы не можете скачивать файлы