BitTorrentTracker PerecTracker.org
BitTorrentTracker PerecTracker.org
    
Регистрация  ·  Вход
 
 · 
Забыли пароль?

  • Плюс один / +1 / Plus One (Дэннис Илиадис / Dennis Iliadis) [2013 г., США, триллер, фантастика, HDTV 1080i] Dub

    Ответить на тему
     
    Автор Сообщение

    Flirldrerve

    Создавать темы 21-Апр-2015 23:12

           

    [Цитировать]

    +1Год выпуска: 2013
    Страна: США
    Жанр: триллер, фантастика
    Продолжительность: 01:32:20
    Перевод: профессиональный (дублированный)
    Cубтитры: нет
    Режиссёр: Дэннис Илиадис / Dennis Iliadis
    В ролях: Риз Уэйкфилд, Логан Миллер, Эшли Хиншоу, Сюзанн Денджел, Коллин Денджел, Натали Холл, Роэн Кимал, Адам Дэвид Томпсон, Рональд Огден, Бернард Джонс, Брэд Миллс, Эйприл Биллингсли
    Описание: Трое друзей из колледжа отправляются на главную вечеринку десятилетия. Каждый ищет там что-то своё: любовь, секс или новые знакомства. Но праздник превращается в хаос, когда по соседству с домом, где все веселятся, падает метеорит.

    Тип релиза: HDTV 1080i
    Контейнер: TS
    Видео: MPEG4 Video (H264) 1920x1080 25fps 6835kbps
    Аудио: MP2 48000Hz stereo 192kbps
    Доп. информация: огромная благодарность Romanok8691 за запись.

    MI

    GeneralID : 1 (0x1)Complete name : +1 (2013) [Кинопоказ HD-1].tsFormat : MPEG-TSFile size : 4.77 GiBDuration : 1h 32mnOverall bit rate mode : VariableOverall bit rate : 7 395 Kbps
    VideoID : 4113 (0x1011)Menu ID : 1 (0x1)Format : AVCFormat/Info : Advanced Video CodecFormat profile : Main@L4.0Format settings, CABAC : YesFormat settings, ReFrames : 3 framesCodec ID : 27Duration : 1h 32mnBit rate mode : VariableBit rate : 6 835 KbpsMaximum bit rate : 40.0 MbpsWidth : 1 920 pixelsHeight : 1 080 pixelsDisplay aspect ratio : 16:9Frame rate : 25.000 fpsStandard : ComponentColor space : YUVChroma subsampling : 4:2:0Bit depth : 8 bitsScan type : InterlacedScan order : Top Field FirstBits/(Pixel*Frame) : 0.132Stream size : 4.41 GiB (92%)
    AudioID : 4352 (0x1100)Menu ID : 1 (0x1)Format : MPEG AudioFormat version : Version 1Format profile : Layer 2Codec ID : 3Duration : 1h 32mnBit rate mode : ConstantBit rate : 192 KbpsChannel(s) : 2 channelsSampling rate : 48.0 KHzCompression mode : LossyStream size : 127 MiB (3%)Language : Russian

    Скриншот с названием фильма

    Скриншоты

    Скачать .torrent

    Скачать торрент-файл бесплатно и на максимальной скорости!

    Как скачивать? · Что такое торрент? · Рейтинг и ограничения

    !ВНИМАНИЕ!
    Сайт не распространяет и не хранит электронные версии произведений, а занимается лишь лишь предоставлением доступа к создаваемому пользователями каталогу ссылок на торрент-файлы, которые содержат только списки хеш-сумм, убедительная просьба с жалобами обращаться напрямую к пользователю. Файлы для обмена на трекере предоставлены пользователями сайта, и администрация не несёт ответственности за их содержание. Просьба не заливать файлы, защищенные авторскими правами, а также файлы нелегального содержания!


    _________________
    [Профиль] [ЛС]
    Показать сообщения:    
    Ответить на тему

    Текущее время: Сегодня, в 00:07

    Часовой пояс: GMT + 2



    Вы не можете начинать темы
    Вы не можете отвечать на сообщения
    Вы не можете редактировать свои сообщения
    Вы не можете удалять свои сообщения
    Вы не можете голосовать в опросах
    Вы не можете прикреплять файлы к сообщениям
    Вы не можете скачивать файлы