Register  ·  Log in
Forgot password?

  • Плюс один / +1 / Plus One (Дэннис Илиадис / Dennis Iliadis) [2013 г., США, триллер, фантастика, HDTV 1080i] Dub

    Reply to topic
    Author Message


    Post 22-Apr-2015 00:12



    +1Год выпуска: 2013
    Страна: США
    Жанр: триллер, фантастика
    Продолжительность: 01:32:20
    Перевод: профессиональный (дублированный)
    Cубтитры: нет
    Режиссёр: Дэннис Илиадис / Dennis Iliadis
    В ролях: Риз Уэйкфилд, Логан Миллер, Эшли Хиншоу, Сюзанн Денджел, Коллин Денджел, Натали Холл, Роэн Кимал, Адам Дэвид Томпсон, Рональд Огден, Бернард Джонс, Брэд Миллс, Эйприл Биллингсли
    Описание: Трое друзей из колледжа отправляются на главную вечеринку десятилетия. Каждый ищет там что-то своё: любовь, секс или новые знакомства. Но праздник превращается в хаос, когда по соседству с домом, где все веселятся, падает метеорит.

    Тип релиза: HDTV 1080i
    Контейнер: TS
    Видео: MPEG4 Video (H264) 1920x1080 25fps 6835kbps
    Аудио: MP2 48000Hz stereo 192kbps
    Доп. информация: огромная благодарность Romanok8691 за запись.


    GeneralID : 1 (0x1)Complete name : +1 (2013) [Кинопоказ HD-1].tsFormat : MPEG-TSFile size : 4.77 GiBDuration : 1h 32mnOverall bit rate mode : VariableOverall bit rate : 7 395 Kbps
    VideoID : 4113 (0x1011)Menu ID : 1 (0x1)Format : AVCFormat/Info : Advanced Video CodecFormat profile : Main@L4.0Format settings, CABAC : YesFormat settings, ReFrames : 3 framesCodec ID : 27Duration : 1h 32mnBit rate mode : VariableBit rate : 6 835 KbpsMaximum bit rate : 40.0 MbpsWidth : 1 920 pixelsHeight : 1 080 pixelsDisplay aspect ratio : 16:9Frame rate : 25.000 fpsStandard : ComponentColor space : YUVChroma subsampling : 4:2:0Bit depth : 8 bitsScan type : InterlacedScan order : Top Field FirstBits/(Pixel*Frame) : 0.132Stream size : 4.41 GiB (92%)
    AudioID : 4352 (0x1100)Menu ID : 1 (0x1)Format : MPEG AudioFormat version : Version 1Format profile : Layer 2Codec ID : 3Duration : 1h 32mnBit rate mode : ConstantBit rate : 192 KbpsChannel(s) : 2 channelsSampling rate : 48.0 KHzCompression mode : LossyStream size : 127 MiB (3%)Language : Russian

    Скриншот с названием фильма


    Download .torrent

    Download free and at maximum speed!

    How to Download? · What is a torrent? · Ratings and Limitations

    The site does not extend and does not store electronic(digital) versions of products, and only gives access to a reference catalogue created by users on torrent-files which contain only lists of the hash-sums, the earnest entreaty, with complaints(abuse) to access directly to the user. Files for an exchange on tracker are given by users of a site, and the administration does not bear the responsibility for their maintenance. The request to not fill in the files protected by copyrights, and also files of the illegal maintenance!

    [Profile] [PM]
    Display posts from previous:    
    Reply to topic

    The time now is: Today 01:43

    All times are GMT + 3 Hours

    You cannot post new topics in this forum
    You cannot reply to topics in this forum
    You cannot edit your posts in this forum
    You cannot delete your posts in this forum
    You cannot vote in polls in this forum
    You cannot attach files in this forum
    You cannot download files in this forum