BitTorrentTracker PerecTracker.org
BitTorrentTracker PerecTracker.org
    
Регистрация  ·  Вход
 
 · 
Забыли пароль?

  • Волк с Уолл-стрит / The Wolf of Wall Street (Мартин Скорсезе / Martin Scorsese) [2013, США, драма, комедия, криминал, биография, BDRip-AVC] Dub (BluRay Rus) + DVO + 2xAVO (Визгунов, Немахов) + Original (Eng) + Subs

    Ответить на тему
     
    Автор Сообщение

    Light

    Создавать темы 21-Апр-2015 23:12

           

    [Цитировать]

    Волк с Уолл-стрит / The Wolf of Wall Street-Страна: США
    Жанр: драма, комедия, криминал, биография
    Год выпуска: 2013
    Продолжительность: 02:59:52 час.
    Перевод #1: Профессиональный (полное дублирование) - BluRay Rus
    Перевод #2: Профессиональный (двухголосый закадровый)
    Перевод #3: Авторский (одноголосый закадровый) - С. Визгунов | отдельно
    Перевод #4: Авторский (одноголосый закадровый) - Ю. Немахов | отдельно
    Субтитры: Русские (Full, Notabenoid), Английские (Full + SDH + SDH-Colored)
    Оригинальная аудиодорожка: Английская
    Навигация по главам: Присутствует (24 главы)
    Режиссер: Мартин Скорсезе / Martin Scorsese
    В ролях: Леонардо ДиКаприо (Jordan Belfort), Джона Хилл (Donnie Azoff), Марго Робби (Naomi Lapaglia), Кайл Чандлер (Agent Patrick Denham), Роб Райнер (Max Belfort), П.Дж. Бирн (Nicky Koskoff ('Rugrat')), Джон Бернтал (Brad), Кристин Милиоти (Teresa Petrillo), Жан Дюжарден (Jean Jacques Saurel), Мэттью МакКонахи (Mark Hanna), Кеннет Чои (Chester Ming), Джон Фавро (Manny Riskin)Описание:
    Джордан Белфорт основал одну из крупнейших брокерских контор в 1987 году, но десять лет спустя был осужден за отмывание денег и ряд прочих финансовых преступлений. Он справился с алкогольной и наркотической зависимостью, выработанной за время махинаций на Уолл-стрит, написал две книги и теперь читает лекции о том, как достичь успеха.

    Качество видео: BDRip-AVC | исх. The Wolf of Wall Street 2013 BDRemux 1080p
    Формат видео: MKV
    Видео: 1152x480p (2.40:1), 23,976 fps, H.264 ~4 008 kbps avg, 0.295 bit/pixel
    Аудио #1: 48 kHz, AC3, 3/2 (L,C,R,l,r) + LFE ch, ~448.00 kbps avg | Профессиональный (полное дублирование) - BluRay Rus
    Аудио #2: 48 kHz, AC3, 3/2 (L,C,R,l,r) + LFE ch, ~448.00 kbps avg | Профессиональный (двухголосый закадровый)
    Аудио #3: 48 kHz, AC3, 3/2 (L,C,R,l,r) + LFE ch, ~448.00 kbps avg | Авторский (одноголосый закадровый) - С. Визгунов | отдельно
    Аудио #4: 48 kHz, AC3, 3/2 (L,C,R,l,r) + LFE ch, ~448.00 kbps avg | Авторский (одноголосый закадровый) - Ю. Немахов | отдельно
    Аудио #5: 48 kHz, AC3, 3/2 (L,C,R,l,r) + LFE ch, ~448.00 kbps avg | Оригинал (Английский)
    Формат субтитров: softsub (SRT)
    MediaInfo | log x264

    log x264

    avs [info]: 1152x480p 1:1 @ 2997/125 fps (cfr)
    x264 [info]: using SAR=1/1
    x264 [info]: using cpu capabilities: MMX2 SSE2Fast SSSE3 SSE4.2 AVX
    x264 [info]: profile High, level 4.1
    x264 [info]: frame I:2234 Avg QP:14.89 size: 97951
    x264 [info]: frame P:52961 Avg QP:16.14 size: 39169
    x264 [info]: frame B:203564 Avg QP:17.91 size: 15298
    x264 [info]: consecutive B-frames: 1.5% 1.4% 6.5% 20.7% 17.8% 40.2% 5.4% 3.1% 1.4% 0.9% 1.1%
    x264 [info]: mb I I16..4: 7.5% 74.1% 18.4%
    x264 [info]: mb P I16..4: 0.3% 16.0% 1.4% P16..4: 23.9% 31.8% 17.2% 3.1% 0.3% skip: 6.0%
    x264 [info]: mb B I16..4: 0.0% 3.4% 0.1% B16..8: 30.6% 23.1% 5.8% direct: 5.7% skip:31.4% L0:43.0% L1:41.3% BI:15.7%
    x264 [info]: 8x8 transform intra:90.2% inter:55.7%
    x264 [info]: coded y,uvDC,uvAC intra: 97.3% 95.3% 87.5% inter: 30.6% 21.3% 7.4%
    x264 [info]: i16 v,h,dc,p: 29% 7% 13% 51%
    x264 [info]: i8 v,h,dc,ddl,ddr,vr,hd,vl,hu: 10% 8% 14% 9% 12% 12% 12% 11% 12%
    x264 [info]: i4 v,h,dc,ddl,ddr,vr,hd,vl,hu: 10% 8% 4% 9% 16% 15% 14% 11% 12%
    x264 [info]: i8c dc,h,v,p: 53% 16% 14% 16%
    x264 [info]: Weighted P-Frames: Y:1.2% UV:0.5%
    x264 [info]: ref P L0: 42.6% 10.1% 18.2% 6.3% 5.8% 3.8% 3.7% 1.9% 1.9% 1.5% 1.5% 1.2% 1.4% 0.1% 0.0%
    x264 [info]: ref B L0: 71.3% 11.7% 5.5% 3.0% 2.1% 1.8% 1.4% 0.9% 0.8% 0.7% 0.4% 0.2%
    x264 [info]: ref B L1: 92.8% 7.2%
    x264 [info]: kb/s:4008.30
    x264 [total]: encoded 258759 frames, 3.01 fps, 4008.30 kb/s
    General
    Unique ID : 246100309165852362764798345341523778987 (0xB925320A9EB33FAA93DF87F4B24CDDAB)
    Complete name : The.Wolf.of.Wall.Street.2013.BDRip-AVC.Rus.Eng.Subs.by.zOJIOtOi.mkv
    Format : Matroska
    Format version : Version 4 / Version 2
    File size : 6.73 GiB
    Duration : 2h 59mn
    Overall bit rate : 5 355 Kbps
    Encoded date : UTC 2015-04-21 14:51:52
    Writing application : mkvmerge v7.0.0 ('Where We Going') 64bit built on Jun 9 2014 15:16:27
    Writing library : libebml v1.3.0 + libmatroska v1.4.1
    DURATION : 02:54:19.639000000
    NUMBER_OF_FRAMES : 4148
    NUMBER_OF_BYTES : 154662
    _STATISTICS_WRITING_APP : mkvmerge v7.0.0 ('Where We Going') 64bit built on Jun 9 2014 15:16:27
    _STATISTICS_WRITING_DATE_UTC : 2015-04-21 14:51:52
    _STATISTICS_TAGS : BPS DURATION NUMBER_OF_FRAMES NUMBER_OF_BYTES
    Attachment : Yes
    Video
    ID : 1
    Format : AVC
    Format/Info : Advanced Video Codec
    Format profile : High@L4.1
    Format settings, CABAC : Yes
    Format settings, ReFrames : 13 frames
    Codec ID : V_MPEG4/ISO/AVC
    Duration : 2h 59mn
    Bit rate : 3 904 Kbps
    Width : 1 152 pixels
    Height : 480 pixels
    Display aspect ratio : 2.40:1
    Frame rate mode : Constant
    Frame rate : 23.976 fps
    Color space : YUV
    Chroma subsampling : 4:2:0
    Bit depth : 8 bits
    Scan type : Progressive
    Bits/(Pixel*Frame) : 0.294
    Stream size : 4.91 GiB (73%)
    Title : tRuAVC | by zOJIOtOi
    Writing library : x264 core 130 r2273 b3065e6
    Encoding settings : cabac=1 / ref=13 / deblock=1:-3:-3 / analyse=0x3:0x133 / me=umh / subme=11 / psy=1 / psy_rd=0.95:0.00 / mixed_ref=1 / me_range=48 / chroma_me=1 / trellis=2 / 8x8dct=1 / cqm=0 / deadzone=21,11 / fast_pskip=1 / chroma_qp_offset=-2 / threads=6 / lookahead_threads=1 / sliced_threads=0 / nr=0 / decimate=1 / interlaced=0 / bluray_compat=0 / constrained_intra=0 / bframes=10 / b_pyramid=2 / b_adapt=2 / b_bias=0 / direct=1 / weightb=1 / open_gop=0 / weightp=2 / keyint=240 / keyint_min=23 / scenecut=40 / intra_refresh=0 / rc_lookahead=60 / rc=crf / mbtree=0 / crf=16.6 / qcomp=0.70 / qpmin=0 / qpmax=69 / qpstep=4 / vbv_maxrate=50000 / vbv_bufsize=62500 / crf_max=0.0 / nal_hrd=none / ip_ratio=1.40 / pb_ratio=1.30 / aq=1:1.00
    Language : English
    Default : Yes
    Forced : No
    DURATION : 02:59:52.418000000
    NUMBER_OF_FRAMES : 258759
    NUMBER_OF_BYTES : 5407404078
    _STATISTICS_WRITING_APP : mkvmerge v7.0.0 ('Where We Going') 64bit built on Jun 9 2014 15:16:27
    _STATISTICS_WRITING_DATE_UTC : 2015-04-21 14:51:52
    _STATISTICS_TAGS : BPS DURATION NUMBER_OF_FRAMES NUMBER_OF_BYTES
    Audio #1
    ID : 2
    Format : AC-3
    Format/Info : Audio Coding 3
    Mode extension : CM (complete main)
    Format settings, Endianness : Big
    Codec ID : A_AC3
    Duration : 2h 59mn
    Bit rate mode : Constant
    Bit rate : 448 Kbps
    Channel(s) : 6 channels
    Channel positions : Front: L C R, Side: L R, LFE
    Sampling rate : 48.0 KHz
    Bit depth : 16 bits
    Compression mode : Lossy
    Delay relative to video : 20s 195ms
    Stream size : 576 MiB (8%)
    Title : Профессиональный (полное дублирование) - Blu-ray RUS | DD 5.1 @ 448 kbps
    Language : Russian
    Default : Yes
    Forced : No
    Audio #2
    ID : 3
    Format : AC-3
    Format/Info : Audio Coding 3
    Mode extension : CM (complete main)
    Format settings, Endianness : Big
    Codec ID : A_AC3
    Duration : 2h 59mn
    Bit rate mode : Constant
    Bit rate : 448 Kbps
    Channel(s) : 6 channels
    Channel positions : Front: L C R, Side: L R, LFE
    Sampling rate : 48.0 KHz
    Bit depth : 16 bits
    Compression mode : Lossy
    Stream size : 576 MiB (8%)
    Title : Профессиональный (двухголосый, закадровый) | DD 5.1 @ 448 kbps
    Language : Russian
    Default : No
    Forced : No
    Audio #3
    ID : 4
    Format : AC-3
    Format/Info : Audio Coding 3
    Mode extension : CM (complete main)
    Format settings, Endianness : Big
    Codec ID : A_AC3
    Duration : 2h 59mn
    Bit rate mode : Constant
    Bit rate : 448 Kbps
    Channel(s) : 6 channels
    Channel positions : Front: L C R, Side: L R, LFE
    Sampling rate : 48.0 KHz
    Bit depth : 16 bits
    Compression mode : Lossy
    Stream size : 576 MiB (8%)
    Title : Оригинал (английский) | DD 5.1 @ 448 kbps
    Language : English
    Default : No
    Forced : No
    Text #1
    ID : 5
    Format : UTF-8
    Codec ID : S_TEXT/UTF8
    Codec ID/Info : UTF-8 Plain Text
    Title : Full
    Language : Russian
    Default : No
    Forced : No
    Text #2
    ID : 6
    Format : UTF-8
    Codec ID : S_TEXT/UTF8
    Codec ID/Info : UTF-8 Plain Text
    Title : Notabenoid
    Language : Russian
    Default : No
    Forced : No
    Text #3
    ID : 7
    Format : UTF-8
    Codec ID : S_TEXT/UTF8
    Codec ID/Info : UTF-8 Plain Text
    Title : Full
    Language : English
    Default : No
    Forced : No
    Text #4
    ID : 8
    Format : UTF-8
    Codec ID : S_TEXT/UTF8
    Codec ID/Info : UTF-8 Plain Text
    Title : SDH
    Language : English
    Default : No
    Forced : No
    Text #5
    ID : 9
    Format : UTF-8
    Codec ID : S_TEXT/UTF8
    Codec ID/Info : UTF-8 Plain Text
    Title : Colored
    Language : English
    Default : No
    Forced : No
    Menu
    00:07:55.933 : en:(01)00:07:55:933
    00:14:17.857 : en:(02)00:14:17:857
    00:21:31.415 : en:(03)00:21:31:415
    00:32:08.092 : en:(04)00:32:08:092
    00:40:14.495 : en:(05)00:40:14:495
    00:48:33.577 : en:(06)00:48:33:577
    00:55:21.776 : en:(07)00:55:21:776
    01:01:56.045 : en:(08)01:01:56:045
    01:07:00.474 : en:(09)01:07:00:474
    01:11:28.909 : en:(10)01:11:28:909
    01:19:49.868 : en:(11)01:19:49:868
    01:29:06.883 : en:(12)01:29:06:883
    01:37:47.403 : en:(13)01:37:47:403
    01:45:11.930 : en:(14)01:45:11:930
    01:54:39.998 : en:(15)01:54:39:998
    02:03:20.184 : en:(16)02:03:20:184
    02:07:28.015 : en:(17)02:07:28:015
    02:17:12.849 : en:(18)02:17:12:849
    02:25:25.466 : en:(19)02:25:25:466
    02:32:08.619 : en:(20)02:32:08:619
    02:36:38.722 : en:(21)02:36:38:722
    02:44:19.266 : en:(22)02:44:19:266
    02:53:04.290 : en:(23)02:53:04:290
    02:59:52.156 : en:(24)02:59:52:156

    Скриншоты



    source vs zOJIOtOi

    source

    rip by zOJIOtOi
    -source vs rip by zOJIOtOi - http://screenshotcomparison.com/comparison/68186/picture:1
    Релиз групп:
    Скачать .torrent

    Скачать торрент-файл бесплатно и на максимальной скорости!

    Как скачивать? · Что такое торрент? · Рейтинг и ограничения

    !ВНИМАНИЕ!
    Сайт не распространяет и не хранит электронные версии произведений, а занимается лишь лишь предоставлением доступа к создаваемому пользователями каталогу ссылок на торрент-файлы, которые содержат только списки хеш-сумм, убедительная просьба с жалобами обращаться напрямую к пользователю. Файлы для обмена на трекере предоставлены пользователями сайта, и администрация не несёт ответственности за их содержание. Просьба не заливать файлы, защищенные авторскими правами, а также файлы нелегального содержания!


    _________________
    [Профиль] [ЛС]
    Показать сообщения:    
    Ответить на тему

    Текущее время: Сегодня, в 22:07

    Часовой пояс: GMT + 2



    Вы не можете начинать темы
    Вы не можете отвечать на сообщения
    Вы не можете редактировать свои сообщения
    Вы не можете удалять свои сообщения
    Вы не можете голосовать в опросах
    Вы не можете прикреплять файлы к сообщениям
    Вы не можете скачивать файлы