BitTorrentTracker PerecTracker.org
BitTorrentTracker PerecTracker.org
    
Регистрация  ·  Вход
 
 · 
Забыли пароль?

  • Высота 89 (Вячеслав Никифоров) [2006, военный, драма, DVB]

    Ответить на тему
     
    Автор Сообщение

    rechyn

    Создавать темы 21-Апр-2015 19:00

           

    [Цитировать]

    Высота 89
    Страна: Россия, Беларусь
    Жанр: военный, драма
    Год выпуска: 2006
    Продолжительность: 01:42:13
    Режиссёр: Вячеслав Никифоров
    В ролях: Алексей Чадов, Александр Пашутин, Виктория Толстоганова, Екатерина Вуличенко, Николай Чиндяйкин
    Описание: Июль 1944 года, Белорусский фронт. Высота 89 — стратегический пункт, вокруг которого разворачиваются жестокие бои. Советская разведка узнает, что фашисты, пытаясь ввести противника в заблуждение, разместили на высоте вместо настоящей боевой техники муляжи танков и орудий. Это меняет планы командования, и принимается решение атаковать высоту 89…

    Кинопоиск
    :
    Сэмпл: http://rusfolder.com/43505431
    Качество видео: DVB
    Формат видео: TS
    Видео: AVC/H.264, 720x576 (4:3), 2636 Кбит/сек, 25.000 fps
    Аудио: русский, MP2, 2ch, 48,0 КГц, 192 Кбит/сек

    MediaInfo

    Общее
    Идентификатор : 1 (0x1)
    Полное имя : C:\Documents and Settings\User\Рабочий стол\Высота 89 (DVB).ts
    Формат : MPEG-TS
    Размер файла : 2,13 Гбайт
    Продолжительность : 1 ч. 42 м.
    Режим общего битрейта : Переменный
    Общий поток : 2977 Кбит/сек
    Видео
    Идентификатор : 1051 (0x41B)
    Идентификатор меню : 1 (0x1)
    Формат : AVC
    Формат/Информация : Advanced Video Codec
    Профиль формата : Main@L3.0
    Параметр CABAC формата : Да
    Параметр ReFrames формата : 3 кадра
    Параметр GOP формата : M=4, N=28
    Идентификатор кодека : 27
    Продолжительность : 1 ч. 42 м.
    Битрейт : 2636 Кбит/сек
    Ширина : 720 пикселей
    Высота : 576 пикселей
    Соотношение сторон : 4:3
    Частота кадров : 25,000 кадров/сек
    Стандарт вещания : Component
    Цветовое пространство : YUV
    Субдискретизация насыщенности : 4:2:0
    Битовая глубина : 8 бит
    Тип развёртки : Чересстрочная
    Порядок развёртки : Верхнее поле первое
    Бит/(Пиксели*Кадры) : 0.254
    Размер потока : 1,88 Гбайт (89%)
    Основные цвета : BT.601 PAL
    Характеристики трансфера : BT.470 System B, BT.470 System G
    Коэффициенты матрицы : BT.601
    colour_range : Limited
    Аудио
    Идентификатор : 1052 (0x41C)
    Идентификатор меню : 1 (0x1)
    Формат : MPEG Audio
    Версия формата : Version 1
    Профиль формата : Layer 2
    Идентификатор кодека : 3
    Продолжительность : 1 ч. 42 м.
    Вид битрейта : Постоянный
    Битрейт : 192 Кбит/сек
    Каналы : 2 канала
    Частота : 48,0 КГц
    Метод сжатия : С потерями
    Размер потока : 140 Мбайт (6%)

    Скриншот c названием фильма

    Скриншоты

    Скачать .torrent

    Скачать торрент-файл бесплатно и на максимальной скорости!

    Как скачивать? · Что такое торрент? · Рейтинг и ограничения

    !ВНИМАНИЕ!
    Сайт не распространяет и не хранит электронные версии произведений, а занимается лишь лишь предоставлением доступа к создаваемому пользователями каталогу ссылок на торрент-файлы, которые содержат только списки хеш-сумм, убедительная просьба с жалобами обращаться напрямую к пользователю. Файлы для обмена на трекере предоставлены пользователями сайта, и администрация не несёт ответственности за их содержание. Просьба не заливать файлы, защищенные авторскими правами, а также файлы нелегального содержания!


    _________________
    [Профиль] [ЛС]
    Показать сообщения:    
    Ответить на тему

    Текущее время: Сегодня, в 04:18

    Часовой пояс: GMT + 2



    Вы не можете начинать темы
    Вы не можете отвечать на сообщения
    Вы не можете редактировать свои сообщения
    Вы не можете удалять свои сообщения
    Вы не можете голосовать в опросах
    Вы не можете прикреплять файлы к сообщениям
    Вы не можете скачивать файлы