BitTorrentTracker PerecTracker.org
BitTorrentTracker PerecTracker.org
    
Регистрация  ·  Вход
 
 · 
Забыли пароль?

  • Частный визит в немецкую клинику (2 серии) / Alman klinikasına şəxsi səfər (Расим Исмайлов) [1988, Драма, шпионский, SATRip]

    Ответить на тему
     
    Автор Сообщение

    Light

    Создавать темы 21-Апр-2015 19:00

           

    [Цитировать]

    Частный визит в немецкую клинику (2 серии) / Alman klinikasına şəxsi səfər
    Жанр: Драма, шпионский
    Страна: СССР
    Студия: Азербайджанфильм им. Дж.Джабарлы
    Год выпуска: 1988
    Продолжительность: 02:06:51.759 (190294 frames)
    Режиссёр: Расим Исмайлов
    В ролях: Расим Балаев, Рамиз Новрузов, Игорь Ледогоров, Игорь Степанов, Кязим Абдуллаев, Елена Тонунц, Лилия Макарова, Анатолий Котенёв, Александр Аржиловский, Юрий Дедович, Анатолий Яббаров, Камиль Зохрабов, Константин Бутаев, Петр Юрченков ст., Шаин Джабраилов, Борис Александров, Иосиф Рыклин, Гюндуз Аббасов, Рамиз Азизбейли, Ефим Абрамов, Надир Азмамедов, Наби Кадыров, Фархад Исрафилов, Откам Искендеров, Логман Керимов, Маяк Керимов, Зили Намазов, Идрис Рустамов, Агахан Салманов, Шамси Шамсизаде, Намхуда Усубалиев, Сулейман Ахмедов, Энвер Гасанов, Рухангиз Касимова, Ульви Мамедов, Франгиз Курбанова
    Описание: Фильм посвящён первым азербайджанским чекистам. Инженер-нефтянник Мамед Рустамов по поручению чекистов едет за границу, чтобы раскрыть крупный заговор против молодой Советской республики...
    Доп. информация: Релиз:
    Автор рипа: pmv
    Большое спасибо за:
    - Исходник DVB (http://perectracker.org/viewtopic.php?t=4989269) - Cheef mate
    (Запись потока *.ts со спутника Ямал 402, 55° в.д., с ТК «Звезда»)
    IMDb = 5,1/10 from 7 users -
    Кинопоиск = 4.500 (21) -
    * Фильм заявлен, как двухсерийный, но в трансляции по ТК "Звезда" разделение на серии отсутствует.
    ПРОСЬБА к СКАЧАВШИМ. НЕ УХОДИТЕ С РАЗДАЧИ, ПОМОГИТЕ ДРУГИМ СКАЧАТЬ!!!
    Качество видео: SATRip
    Формат видео: AVI
    Видео: 704x528 (1.33:1), 25 fps, XviD build 73 ~1500 kbps avg, 0.16 bit/pixel
    Аудио: 48 kHz, MPEG Layer 3, stereo (2 ch), ~128.00 kbps avg

    MediaInfo

    General
    Complete name : D:\torrents\частный визит в немецкую клинику (1988).avi
    Format : AVI
    Format/Info : Audio Video Interleave
    File size : 1.45 GiB
    Duration : 2h 6mn
    Overall bit rate : 1 638 Kbps
    Writing library : VirtualDub build 35576/release
    Video
    ID : 0
    Format : MPEG-4 Visual
    Format profile : Advanced Simple@L5
    Format settings, BVOP : Yes
    Format settings, QPel : No
    Format settings, GMC : No warppoints
    Format settings, Matrix : Default (H.263)
    Codec ID : XVID
    Codec ID/Hint : XviD
    Duration : 2h 6mn
    Bit rate : 1 500 Kbps
    Width : 704 pixels
    Height : 528 pixels
    Display aspect ratio : 4:3
    Frame rate : 25.000 fps
    Resolution : 8 bits
    Colorimetry : 4:2:0
    Scan type : Progressive
    Bits/(Pixel*Frame) : 0.161
    Stream size : 1.33 GiB (92%)
    Writing library : XviD 73
    Audio
    ID : 1
    Format : MPEG Audio
    Format version : Version 1
    Format profile : Layer 3
    Format_Settings_Mode : Joint stereo
    Codec ID : 55
    Codec ID/Hint : MP3
    Duration : 2h 6mn
    Bit rate mode : Constant
    Bit rate : 128 Kbps
    Channel(s) : 2 channels
    Sampling rate : 48.0 KHz
    Stream size : 116 MiB (8%)
    Alignment : Split accross interleaves
    Interleave, duration : 40 ms (1.00 video frame)
    Interleave, preload duration : 500 ms

    Скриншот c названием фильма

    Скриншоты

    Скачать .torrent

    Скачать торрент-файл бесплатно и на максимальной скорости!

    Как скачивать? · Что такое торрент? · Рейтинг и ограничения

    !ВНИМАНИЕ!
    Сайт не распространяет и не хранит электронные версии произведений, а занимается лишь лишь предоставлением доступа к создаваемому пользователями каталогу ссылок на торрент-файлы, которые содержат только списки хеш-сумм, убедительная просьба с жалобами обращаться напрямую к пользователю. Файлы для обмена на трекере предоставлены пользователями сайта, и администрация не несёт ответственности за их содержание. Просьба не заливать файлы, защищенные авторскими правами, а также файлы нелегального содержания!


    _________________
    [Профиль] [ЛС]
    Показать сообщения:    
    Ответить на тему

    Текущее время: Сегодня, в 18:53

    Часовой пояс: GMT + 2



    Вы не можете начинать темы
    Вы не можете отвечать на сообщения
    Вы не можете редактировать свои сообщения
    Вы не можете удалять свои сообщения
    Вы не можете голосовать в опросах
    Вы не можете прикреплять файлы к сообщениям
    Вы не можете скачивать файлы