BitTorrentTracker PerecTracker.org
BitTorrentTracker PerecTracker.org
    
Регистрация  ·  Вход
 
 · 
Забыли пароль?

  • Канатоходец (Владимир Голованов) [1972, Мелодрама, TVRip]

    Ответить на тему
     
    Автор Сообщение

    Light

    Создавать темы 21-Апр-2015 10:36

           

    [Цитировать]

    Канатоходец
    Жанр: Мелодрама
    Год выпуска: 1972
    Продолжительность: 01:03:24

    Режиссёр: Владимир Голованов
    В ролях: А. Магомедалиев, И. Абдурахманова, А. Гайтукаев, З. Агкацева, Б. Мурадова, Р. Буттаева, М. Абакаров, П. Хизроева, А. Бекузаров, М. Расулов
    Описание: Повесть о древнем искусстве хождения по канату, о мальчике и девочке, о девушке и юноше, о старике и о многих других.
    О козленке, которого чабан подарил мальчику, когда большое стадо проходило мимо селения ранним утром, теплым летом.
    Все это было в Дагестане, на удивительной земле.
    Чабан Юсуп не знал, что подарив Мурату козленка, он познакомится и с молодой учительницей Тамарой.
    Тамара ничего не знала о таком чабане.
    А мальчик Мурад думал только о козленке, которого он хотел вырастить канатоходцем...

    Доп. информация:

    Качество видео: TVRip
    Формат видео: AVI
    Видео: 720x544 (1.32:1), 25 fps, XviD MPEG-4 ~1508 kbps avg, 0.15 bit/pixel
    Аудио: 48 kHz, MPEG Layer 3, 2 ch, ~128.00 kbps avg

    MediaInfo

    Complete name : Kanatohodec.1972.TVRip.fenixclub.avi
    Format : AVI
    Format/Info : Audio Video Interleave
    File size : 747 MiB
    Duration : 1h 3mn
    Overall bit rate : 1 646 Kbps
    Writing application : VirtualDubModRus 1.5.10.2 (build 2542/release)
    Writing library : VirtualDub build 32842/release
    Video
    ID : 0
    Format : MPEG-4 Visual
    Format profile : Advanced Simple@L5
    Format settings, BVOP : Yes
    Format settings, QPel : No
    Format settings, GMC : No warppoints
    Format settings, Matrix : Default (H.263)
    Codec ID : XVID
    Codec ID/Hint : XviD
    Duration : 1h 3mn
    Bit rate : 1 509 Kbps
    Width : 720 pixels
    Height : 544 pixels
    Display aspect ratio : 4:3
    Frame rate : 25.000 fps
    Color space : YUV
    Chroma subsampling : 4:2:0
    Bit depth : 8 bits
    Scan type : Progressive
    Compression mode : Lossy
    Bits/(Pixel*Frame) : 0.154
    Stream size : 684 MiB (92%)
    Writing library : XviD 73
    Audio
    ID : 1
    Format : MPEG Audio
    Format version : Version 1
    Format profile : Layer 3
    Mode : Joint stereo
    Mode extension : MS Stereo
    Codec ID : 55
    Codec ID/Hint : MP3
    Duration : 1h 3mn
    Bit rate mode : Constant
    Bit rate : 128 Kbps
    Channel(s) : 2 channels
    Sampling rate : 48.0 KHz
    Compression mode : Lossy
    Stream size : 58.0 MiB (8%)
    Alignment : Split accross interleaves
    Interleave, duration : 40 ms (1.00 video frame)
    Interleave, preload duration : 500 ms

    Скриншоты




    Скачать .torrent

    Скачать торрент-файл бесплатно и на максимальной скорости!

    Как скачивать? · Что такое торрент? · Рейтинг и ограничения

    !ВНИМАНИЕ!
    Сайт не распространяет и не хранит электронные версии произведений, а занимается лишь лишь предоставлением доступа к создаваемому пользователями каталогу ссылок на торрент-файлы, которые содержат только списки хеш-сумм, убедительная просьба с жалобами обращаться напрямую к пользователю. Файлы для обмена на трекере предоставлены пользователями сайта, и администрация не несёт ответственности за их содержание. Просьба не заливать файлы, защищенные авторскими правами, а также файлы нелегального содержания!


    _________________
    [Профиль] [ЛС]
    Показать сообщения:    
    Ответить на тему

    Текущее время: Сегодня, в 22:21

    Часовой пояс: GMT + 2



    Вы не можете начинать темы
    Вы не можете отвечать на сообщения
    Вы не можете редактировать свои сообщения
    Вы не можете удалять свои сообщения
    Вы не можете голосовать в опросах
    Вы не можете прикреплять файлы к сообщениям
    Вы не можете скачивать файлы