BitTorrentTracker PerecTracker.org
BitTorrentTracker PerecTracker.org
    
Регистрация  ·  Вход
 
 · 
Забыли пароль?

  • Батл Крик / Battle Creek (Сезон 1, Серия 1-9 из 13) (Винс Гиллиган, Дэвид Шор) [2015, Драма, криминал, WEBDLRip] [MVO] [LostFilm,NewStudio,BaibaKo,Gears Media]

    Ответить на тему
     
    Автор Сообщение

    Враг Нароода

    Создавать темы 21-Апр-2015 09:48

           

    [Цитировать]

    --Батл Крик / Battle Creek Сезон 1,Серия 1-9 из 13--Год выпуска: 2015
    Выпущено: США, High Bridge Productions, Shore Z Productions
    Жанр: Драма, криминал
    Продолжительность: 00:44:00
    Сезон: 1
    Серия: 1-9
    Количество серий в сезоне: 13
    Озвучка 1: Профессиональный многоголосый- LostFilm
    Озвучка 2: Профессиональный многоголосый - NewStudio
    Озвучка 3: Профессиональный многоголосый -BaibaKo
    Озвучка 4: Профессиональный многоголосый - Gears Media
    Субтитры: НЕТ-- --Режиссер: Винс Гиллиган, Дэвид Шор--В ролях: Джош Дюамель, Дин Уинтерс, Джанет МакТир, Кэл Пенн, Обри Доллар, Дэймон Херриман-- Я тебя обмануВсегда в сетке эфирных каналов были: комедии, мелодрамы, детективы, что-то научно фантастическое ну и тысяча серийные дешевые мыльные оперы про копов или пожарных (C.S.I.: Место преступления, C.S.I.: Место преступления Майами, C.S.I.: Место преступления Антарктида, C.S.I.: Место преступления открытый космос и т. п.), из разряда — чтобы было в сетке, все равно смотреть никто не будет.
    Ну что-то изменилось и руководство каналов решило в самые рейтинговые слоты эфира вместо достаточно занятных сериалов типа «Лоста» вставлять высокобюджетные процедуралы про неординарных людей на ординарных должностях с претензией на гениальность, успех Хауса не даёт покоя (Кэл Пенн же не случайно оказался в титрах). Почему эта тематика так взбудоражила руководство каналов остается загадкой. Но что имеем то имеем.
    Теперь о нашем случаи. Пилот сериала снял Брайн Сингер, это конечно не Кристофер Джонатан Джеймс Нолан, но всё же человек довольно известный в киноиндустрии. Такие культовые картины как «Джек — покоритель великанов» и «Публичный доступ» многого стоят. Привлечение такого метра не случайно: во-первых, громкое имя в титрах всегда привлекает дополнительную аудиторию, а во-вторых, задав высокую планку пилотом её стараются не опускать в дальнейшем.
    Теперь о самом сериале. Захолустный городишка где у полиции нет денег даже на батарейки для электрошокеров ждут перемены. Из центра приезжает, нет не ревизор, а агент ФБР. Этот агент всем видом излучает успех и богатство, однако в напарники себе он берет полную противоположность: самого брюзжащего и недовольного жизнью детектива, которого только можно представить. Ну и собственно вот эта сладкая парочка и разгадывает разного рода убийства. Киноэстет со стажем отметит, что все это мы видели в «Гарольд и Кумар уходят в отрыв» (Кэл Пенн же не случайно оказался в титрах), но это не так.
    Вроде бы все как всегда, но не все. У каждого такого сериала есть своя фишка, и чаще всего довольно идиотская. В данном случаи фишка «я тебя обману». Смысл в чем: обычно сценарии во всех сериалах прямолинейны, все сделано для того чтобы зритель без проблем предсказывал каждый следующий шаг героя. Тогда зритель будет доволен, естественно он же заранее разгадал такую сложную схему преступления.
    В нашем примере два главных героя выдают следующие. Один, (который агент Ф. Б. Р., у которого все в мире обычно, т. к. он оптимист) говорит: «как правило на этой дороге сворачивают направо». Однако детектив брюзга отвечает: «ты знаешь, у нас тут все никак у людей, если ты повернешь направо, у нас ничего не получится». В итоге результат может быть, как в пользу первого, так и второго.
    Этот неровный ритм не идет на пользу, зритель не любит, когда его вот так дешево водят за нос. Вместо сочинения качественной истории, нас заставляют ломать голову над тем, кто же из напарников окажется прав в каждой конкретной ситуации.
    ----Качество : WEB-DLRip
    Формат: AVI
    Видео кодек: DivX5
    Видео: 2916Кбит/сек,720х406(16.9),в 23.976кадр/сек,MPEG4 Visual(DivX5)
    Аудио кодек: AC3
    Аудио #1:AC3 , 640 Kbps, 48.0 KHz, 6 ch- - LostFilm
    Аудио #2: AC3, 640 Kbps, 48.0 KHz, 6 ch - - NewStudio
    Аудио #3: AC3, 640 Kbps, 48.0 KHz, 6 ch - -BaibaKo
    Аудио #4: AC3, 640 Kbps, 48.0 KHz,6 ch - - Gears Media
    Аудио #5: AC3, 640 Kbps, 48.0 KHz,6 ch - - English---

    Доп. информация:

    Звуковая дорожка сделана путем наложения чистого голоса озвучивателей на центральный канал оригинальной дорожки. Качество идентично звуковой дорожке.
    --

    Список эпизодов сезона


    01 Метод Батл Крика (The Battle Creek Way)
    02 Липкое дело (Syruptitious)
    03 Лучший друг человека (Man's Best Friend)
    04 Фамильные ценности (Heirlooms)
    05 Былое пламя (Old Flames)
    06 Убийство на завтрак (Cereal Killers)
    07 Мамин сын (Mama's Boy)
    08. Старые раны (Old Wounds)
    09. Пряничный человечек (Gingerbread Man)
    --

    MediaInfo сезона

    Общее
    Полное имя : D:\БАТЛ КРИК\BATTLE_CREEK_2015_S01_RUS_ENG[LostFilm_NewStudio_BaibaKo_Gears_Media]_[AVI_DivX5_DD5.1]_Nikolai.Baranov_WEB-DLRip\BATTLE_CREEK_2015_S01E01_RUS_ENG[LostFilm_NewStudio_BaibaKo_Gears_Media]_[AVI_DivX5_DD5.1]_Nikolai.Baranov_WEB-DLRip.divx
    Формат : AVI
    Формат/Информация : Audio Video Interleave
    Размер файла : 1,80 Гбайт
    Продолжительность : 41 м.
    Общий поток : 6145 Кбит/сек
    Видео
    Идентификатор : 0
    Формат : MPEG-4 Visual
    Параметр BVOP формата : 1
    Параметр QPel формата : Нет
    Параметр GMC формата : Без точки перехода
    Параметр матрицы формата : Default (H.263)
    Режим смешивания : Сжатый битовый поток
    Идентификатор кодека : DX50
    Идентификатор кодека/Подсказка : DivX 5
    Продолжительность : 41 м.
    Битрейт : 2916 Кбит/сек
    Ширина : 720 пикселей
    Высота : 406 пикселей
    Соотношение сторон : 16:9
    Частота кадров : 23,976 кадра/сек
    Цветовое пространство : YUV
    Субдискретизация насыщенности : 4:2:0
    Битовая глубина : 8 бит
    Тип развёртки : Прогрессивная
    Метод сжатия : С потерями
    Бит/(Пиксели*Кадры) : 0.416
    Размер потока : 875 Мбайт (47%)
    Заголовок : Video
    Библиотека кодирования : DivX 2682
    Аудио #1
    Идентификатор : 1
    Формат : AC-3
    Формат/Информация : Audio Coding 3
    Расширение режима : CM (complete main)
    Параметр Endianness формата : Big
    Идентификатор кодека : 2000
    Продолжительность : 41 м.
    Вид битрейта : Постоянный
    Битрейт : 640 Кбит/сек
    Каналы : 6 каналов
    Расположение каналов : Front: L C R, Side: L R, LFE
    Частота : 48,0 КГц
    Битовая глубина : 16 бит
    Метод сжатия : С потерями
    Размер потока : 192 Мбайт (10%)
    Выравнивание : Разделение по промежуткам
    Продолжительность промежутка : 42 мс. (1,00 видеокадр)
    Время предзагрузки промежутка : 500 мс.
    Заголовок : Audio - en-US01
    Аудио #2
    Идентификатор : 2
    Формат : AC-3
    Формат/Информация : Audio Coding 3
    Расширение режима : CM (complete main)
    Параметр Endianness формата : Big
    Идентификатор кодека : 2000
    Продолжительность : 41 м.
    Вид битрейта : Постоянный
    Битрейт : 640 Кбит/сек
    Каналы : 6 каналов
    Расположение каналов : Front: L C R, Side: L R, LFE
    Частота : 48,0 КГц
    Битовая глубина : 16 бит
    Метод сжатия : С потерями
    Размер потока : 192 Мбайт (10%)
    Выравнивание : Разделение по промежуткам
    Продолжительность промежутка : 42 мс. (1,00 видеокадр)
    Время предзагрузки промежутка : 500 мс.
    Заголовок : Audio - en-US01
    Аудио #3
    Идентификатор : 3
    Формат : AC-3
    Формат/Информация : Audio Coding 3
    Расширение режима : CM (complete main)
    Параметр Endianness формата : Big
    Идентификатор кодека : 2000
    Продолжительность : 41 м.
    Вид битрейта : Постоянный
    Битрейт : 640 Кбит/сек
    Каналы : 6 каналов
    Расположение каналов : Front: L C R, Side: L R, LFE
    Частота : 48,0 КГц
    Битовая глубина : 16 бит
    Метод сжатия : С потерями
    Размер потока : 192 Мбайт (10%)
    Выравнивание : Разделение по промежуткам
    Продолжительность промежутка : 42 мс. (1,00 видеокадр)
    Время предзагрузки промежутка : 500 мс.
    Заголовок : Audio - en-US01
    Аудио #4
    Идентификатор : 4
    Формат : AC-3
    Формат/Информация : Audio Coding 3
    Расширение режима : CM (complete main)
    Параметр Endianness формата : Big
    Идентификатор кодека : 2000
    Продолжительность : 41 м.
    Вид битрейта : Постоянный
    Битрейт : 640 Кбит/сек
    Каналы : 6 каналов
    Расположение каналов : Front: L C R, Side: L R, LFE
    Частота : 48,0 КГц
    Битовая глубина : 16 бит
    Метод сжатия : С потерями
    Размер потока : 192 Мбайт (10%)
    Выравнивание : Разделение по промежуткам
    Продолжительность промежутка : 42 мс. (1,00 видеокадр)
    Время предзагрузки промежутка : 500 мс.
    Заголовок : Audio - en-US01
    Аудио #5
    Идентификатор : 5
    Формат : AC-3
    Формат/Информация : Audio Coding 3
    Расширение режима : CM (complete main)
    Параметр Endianness формата : Big
    Идентификатор кодека : 2000
    Продолжительность : 41 м.
    Вид битрейта : Постоянный
    Битрейт : 640 Кбит/сек
    Каналы : 6 каналов
    Расположение каналов : Front: L C R, Side: L R, LFE
    Частота : 48,0 КГц
    Битовая глубина : 16 бит
    Метод сжатия : С потерями
    Размер потока : 192 Мбайт (10%)
    Выравнивание : Разделение по промежуткам
    Продолжительность промежутка : 42 мс. (1,00 видеокадр)
    Время предзагрузки промежутка : 500 мс.
    Заголовок : Audio - en-US01
    --

    Скриншоты

    ----Внимание! Раздача пополняется по мере выхода новых серий!--

    Внимание! Раздача ведётся путём добавления новых серий!

    Раздача ведётся путём добавления новых серий; при каждом добавлении создётся новый торрент.
    Чтобы начать докачку новой серии, пользователям необходимо сделать следующее:
    1. остановить скачивание,
    2. удалить старый торрент у себя из клиента (старые серии удалять не надо),
    3. скачать новый торрент и запустить его у себя в клиенте вместо старого, при этом указать клиенту путь в старую папку, куда и должно происходить скачивание новых серий.
    Ваш клиент при этом должен произвести хеширование (проверку) старой папки (если не производит сам - помогите ему сделать это), и будет докачивать только те серии которых у вас ещё нет. Старые серии при этом не удаляются, а продолжают раздаваться!
    Eсли вы уже удалили старые серии, то предотвратить повторную закачку старых серий можно, отжав галочку в соответсвующих местах при запуске нового торрента. По возможности, желательно не удалять старые серии как можно дольше, чтобы релизёр не столько продолжал раздавать старые серии, а смог сконцентрироваться на новых.
    Совет для тех, кто не хочет ждать перехеширования:
    Создайте ещё одну папку рядом с папкой сериала (рядом, а не в ней!!!). Каждую новую серию после удачной загрузки копируйте в новую папку так чтобы ваша основная папка всегда была пуста. Когда ваш новый торрент предложит вам закачать все файлы, выберете только последнюю. Для сидирования же укажите адрес новой папки.
    Как закачать отдельный файл из торрента или докачать ранее пропущенные файлы торрента!

    Как закачать отдельный файл

    1. Открыть торрент
    2. Снять галки с тех файлов торрента, которые мы не хотим закачивать. Оставляем только на нужных нам файлах (файле).
    3. Нажать О.К.
    В клиенте utorrent
    Инструкция
    1) Открыть торрент

    2) Снять галки с тех файлов торрента, которые мы не хотим закачивать:
    * либо вручную, снимая с каждого файла галку( скрин №1)
    * либо, нажав кнопку "Снять метки (Select None)", сняв сразу со всех файлов(скрин №2)
    №1

    №2

    Оставляем только на нужных нам файлах (файле).

    3)Нажать О.К
    ------Внимание!!! 14.05. 2015. РАЗДАЧА ОБНОВЛЕНА.ОБНОВИТЕ ТОРЕНТ ФАЙЛ.ПРИЯТНОГО ПРОСМОТРА . --Релиз от: Nikolai.Baranov --------
    Скачать .torrent

    Скачать торрент-файл бесплатно и на максимальной скорости!

    Как скачивать? · Что такое торрент? · Рейтинг и ограничения

    !ВНИМАНИЕ!
    Сайт не распространяет и не хранит электронные версии произведений, а занимается лишь лишь предоставлением доступа к создаваемому пользователями каталогу ссылок на торрент-файлы, которые содержат только списки хеш-сумм, убедительная просьба с жалобами обращаться напрямую к пользователю. Файлы для обмена на трекере предоставлены пользователями сайта, и администрация не несёт ответственности за их содержание. Просьба не заливать файлы, защищенные авторскими правами, а также файлы нелегального содержания!


    _________________

    Легко быть оптимистом, когда судьба не валит с ног тяжелыми ударами, а лишь иногда легонько шлепает по заднице.
    [Профиль] [ЛС]
    Показать сообщения:    
    Ответить на тему

    Текущее время: Сегодня, в 19:49

    Часовой пояс: GMT + 2



    Вы не можете начинать темы
    Вы не можете отвечать на сообщения
    Вы не можете редактировать свои сообщения
    Вы не можете удалять свои сообщения
    Вы не можете голосовать в опросах
    Вы не можете прикреплять файлы к сообщениям
    Вы не можете скачивать файлы