BitTorrentTracker PerecTracker.org
BitTorrentTracker PerecTracker.org
    
Регистрация  ·  Вход
 
 · 
Забыли пароль?

  • Казус импровизус (Евгений Каменькович, Алла Сурикова) [1991, комедия, DVB]

    Ответить на тему
     
    Автор Сообщение

    Light

    Создавать темы 21-Апр-2015 02:12

           

    [Цитировать]

    Казус импровизус
    Жанр: комедия
    Год выпуска: 1991
    Продолжительность: 01:10:04
    Режиссёр: Евгений Каменькович, Алла Сурикова
    В ролях: Владимир Машков, Мария Миронова, Александр Марин, Ирина Петрова
    Описание: По мотивам пьесы Александра Буравского «Учитель русского».
    Действие происходит в курортной больнице, места в которой предприимчивый главврач Попов сдает вполне здоровым отдыхающим. Опасаясь проверок, Попов держит своих «мнимых больных» на строжайшем режиме, запрещая выходить даже в туалет. Вот в такой, трагикомической, ситуации встречаются герои фильма — молодой учитель Толя и пенсионерка Козицкая, ехавшие сюда, чтобы погреться на солнышке и покупаться в море...
    Доп. информация: Запись потока *.ts со спутника INTELSAT 904, 60° в.д., ремукс в *.mpg программой VideoReDo.
    Качество видео: DVB
    Формат видео: MPEG-PS
    Видео: MPEG Video, 720(768)x576 (4:3), 25,000 кадров/сек, 3604 Кбит/сек
    Аудио: MPEG Audio, 48,0 КГц, 256 Кбит/сек, 2 канала

    MediaInfo

    Общее
    Полное имя : D:\MPG\КАЗУС ИМПРОВИЗУС (100 ТВ).mpg
    Формат : MPEG-PS
    Размер файла : 1,88 Гбайт
    Продолжительность : 1 ч. 10 м.
    Режим общего битрейта : Переменный
    Общий поток : 3845 Кбит/сек
    Видео
    Идентификатор : 224 (0xE0)
    Формат : MPEG Video
    Версия формата : Version 2
    Профиль формата : Main@Main
    Параметр BVOP формата : Да
    Параметр матрицы формата : Выборочная
    Параметр GOP формата : Variable
    Продолжительность : 1 ч. 10 м.
    Вид битрейта : Переменный
    Битрейт : 3604 Кбит/сек
    Ширина : 720 пикселей
    Высота : 576 пикселей
    Соотношение сторон : 4:3
    Частота кадров : 25,000 кадров/сек
    Стандарт вещания : PAL
    Цветовое пространство : YUV
    Субдискретизация насыщенности : 4:2:0
    Битовая глубина : 8 бит
    Тип развёртки : Чересстрочная
    Порядок развёртки : Верхнее поле первое
    Метод сжатия : С потерями
    Бит/(Пиксели*Кадры) : 0.348
    Временной код первого кадра : 00:00:00:00
    Оригинал временного кода : Group of pictures header
    Размер потока : 1,75 Гбайт (93%)
    Аудио
    Идентификатор : 192 (0xC0)
    Формат : MPEG Audio
    Версия формата : Version 1
    Профиль формата : Layer 2
    Продолжительность : 1 ч. 10 м.
    Вид битрейта : Постоянный
    Битрейт : 192 Кбит/сек
    Каналы : 2 канала
    Частота : 48,0 КГц
    Метод сжатия : С потерями
    Задержка видео : 15 мс.
    Размер потока : 96,2 Мбайт (5%)

    Скриншоты

    Скачать .torrent

    Скачать торрент-файл бесплатно и на максимальной скорости!

    Как скачивать? · Что такое торрент? · Рейтинг и ограничения

    !ВНИМАНИЕ!
    Сайт не распространяет и не хранит электронные версии произведений, а занимается лишь лишь предоставлением доступа к создаваемому пользователями каталогу ссылок на торрент-файлы, которые содержат только списки хеш-сумм, убедительная просьба с жалобами обращаться напрямую к пользователю. Файлы для обмена на трекере предоставлены пользователями сайта, и администрация не несёт ответственности за их содержание. Просьба не заливать файлы, защищенные авторскими правами, а также файлы нелегального содержания!


    _________________
    [Профиль] [ЛС]
    Показать сообщения:    
    Ответить на тему

    Текущее время: Сегодня, в 00:28

    Часовой пояс: GMT + 2



    Вы не можете начинать темы
    Вы не можете отвечать на сообщения
    Вы не можете редактировать свои сообщения
    Вы не можете удалять свои сообщения
    Вы не можете голосовать в опросах
    Вы не можете прикреплять файлы к сообщениям
    Вы не можете скачивать файлы