BitTorrentTracker PerecTracker.org
BitTorrentTracker PerecTracker.org
    
Регистрация  ·  Вход
 
 · 
Забыли пароль?

  • Призраки в Коннектикуте 2: Тени прошлого / The Haunting in Connecticut 2: Ghosts of Georgia (Том Элкинс / Tom Elkins) [2013 г., США, ужасы, триллер, драма, HDRip-AVC] Dub + Sub (Rus, Eng)

    Ответить на тему
     
    Автор Сообщение

    Light

    Создавать темы 21-Апр-2015 02:12

           

    [Цитировать]

    -Призраки в Коннектикуте 2: Тени прошлого / The Haunting in Connecticut 2: Ghosts of Georgia--Год выпуска: 2013Страна: СШАЖанр: ужасы, триллер, драма-Продолжительность: 01:40:58Перевод: Профессиональный (дублированный) [лицензия]Субтитры: (русские, английские)--Режиссер:Том Элкинс / Tom Elkins-В ролях:Эбигейл Спенсер, Эмили Элин Линд, Кэти Сакхофф, Чад Майкл Мюррэй, Грант Джеймс, Уэйн Пер, Лэнс Э. Николс, Джарен Митчелл, Сисели Тайсон, Сэм Полин-Описание:
    Девочка Хайди недавно переехала в Джорджию вместе со своими родителями. Однако жизнь на новом месте не задалась, так как ее начали терроризировать призраки. Вынужденные поверить в происходящее, родители пытаются выяснить причину паранормальных явлений.
    --Дополнительная информация:-
    -Сэмпл Рип НЕ совместим с бытовыми DVD-проигрывателями.--Качество видео: HDRip-AVC (Исходник: BDRip 1080p )
    Формат видео: MKV
    Видео: AVC (x264), 1008x420 (2.4:1), 23.976 fps, ~1686 kbps avg, 0.166 bit/pixel
    Аудио: 48 kHz, AC3 Dolby Digital, 3/2 (L,C,R,l,r) + LFE ch, 384 kbps (Dub)
    Главы: есть-Скриншоты


    Название

    MediaInfo/log

    log

    x264 [info]: frame I:1612 Avg QP:14.34 size: 71554
    x264 [info]: frame P:33342 Avg QP:17.56 size: 18187
    x264 [info]: frame B:110304 Avg QP:19.10 size: 5029
    x264 [info]: consecutive B-frames: 3.0% 3.9% 10.4% 25.2% 17.1% 25.9% 4.8% 1.7% 1.5% 0.9% 1.5% 0.6% 0.9% 0.4% 0.6% 0.2% 1.4%
    x264 [info]: mb I I16..4: 8.8% 67.5% 23.7%
    x264 [info]: mb P I16..4: 2.0% 12.1% 2.4% P16..4: 30.0% 33.0% 11.8% 0.0% 0.0% skip: 8.6%
    x264 [info]: mb B I16..4: 0.2% 1.4% 0.3% B16..8: 30.3% 17.9% 2.8% direct: 4.6% skip:42.3% L0:40.3% L1:46.7% BI:13.0%
    x264 [info]: 8x8 transform intra:71.8% inter:57.4%
    x264 [info]: direct mvs spatial:97.8% temporal:2.2%
    x264 [info]: coded y,uvDC,uvAC intra: 77.9% 79.9% 63.7% inter: 17.2% 17.1% 9.7%
    x264 [info]: i16 v,h,dc,p: 42% 12% 9% 37%
    x264 [info]: i8 v,h,dc,ddl,ddr,vr,hd,vl,hu: 13% 7% 11% 9% 12% 12% 11% 12% 13%
    x264 [info]: i4 v,h,dc,ddl,ddr,vr,hd,vl,hu: 33% 6% 9% 7% 10% 10% 8% 8% 9%
    x264 [info]: i8c dc,h,v,p: 39% 26% 20% 15%
    x264 [info]: Weighted P-Frames: Y:13.2% UV:9.9%
    x264 [info]: ref P L0: 58.6% 9.3% 13.2% 6.0% 4.1% 3.0% 2.3% 1.3% 1.0% 0.8% 0.2% 0.0%
    x264 [info]: ref B L0: 78.0% 12.4% 4.6% 1.9% 1.2% 0.8% 0.6% 0.2% 0.1%
    x264 [info]: ref B L1: 92.6% 7.4%
    x264 [info]: kb/s:1685.54
    General
    Unique ID : 210371466935542088073515949014156338392 (0x9E44121D6E5CB651A10396B9078464D8)
    Complete name : \Prizraki_v_Konnektikute_2_(2013).HDRip-AVC.Dub.sub_[All.Films][RG].mkv
    Format : Matroska
    Format version : Version 4 / Version 2
    File size : 1.46 GiB
    Duration : 1h 40mn
    Overall bit rate : 2 071 Kbps
    Movie name : Призраки в Коннектикуте 2: Тени прошлого / The Haunting in Connecticut 2: Ghosts of Georgia (2013) HDRip | <VIRUS> [perectracker.org]
    Encoded date : UTC 2015-04-20 13:12:09
    Writing application : mkvmerge v7.5.0 ('Glass Culture') 32bit built on Jan 10 2015 09:41:31
    Writing library : libebml v1.3.1 + libmatroska v1.4.2
    DURATION : 01:40:58.496000000
    NUMBER_OF_FRAMES : 189328
    NUMBER_OF_BYTES : 290807808
    _STATISTICS_WRITING_APP : mkvmerge v7.5.0 ('Glass Culture') 32bit built on Jan 10 2015 09:41:31
    _STATISTICS_WRITING_DATE_UT : 2015-04-20 13:12:09
    _STATISTICS_TAGS : BPS DURATION NUMBER_OF_FRAMES NUMBER_OF_BYTES
    Video
    ID : 1
    Format : AVC
    Format/Info : Advanced Video Codec
    Format profile : High@L4.1
    Format settings, CABAC : Yes
    Format settings, ReFrames : 10 frames
    Codec ID : V_MPEG4/ISO/AVC
    Duration : 1h 40mn
    Bit rate : 1 686 Kbps
    Width : 1 008 pixels
    Height : 420 pixels
    Display aspect ratio : 2.40:1
    Frame rate mode : Constant
    Frame rate : 23.976 fps
    Color space : YUV
    Chroma subsampling : 4:2:0
    Bit depth : 8 bits
    Scan type : Progressive
    Bits/(Pixel*Frame) : 0.166
    Stream size : 1.16 GiB (79%)
    Writing library : x264 core 144 r2525 40bb568
    Encoding settings : cabac=1 / ref=10 / deblock=1:-2:-1 / analyse=0x3:0x113 / me=umh / subme=11 / psy=1 / psy_rd=1.00:0.05 / mixed_ref=1 / me_range=42 / chroma_me=1 / trellis=2 / 8x8dct=1 / cqm=0 / deadzone=21,11 / fast_pskip=0 / chroma_qp_offset=-3 / threads=6 / lookahead_threads=1 / sliced_threads=0 / nr=0 / decimate=0 / interlaced=0 / bluray_compat=0 / constrained_intra=0 / bframes=16 / b_pyramid=2 / b_adapt=2 / b_bias=0 / direct=3 / weightb=1 / open_gop=0 / weightp=2 / keyint=250 / keyint_min=23 / scenecut=40 / intra_refresh=0 / rc_lookahead=60 / rc=2pass / mbtree=0 / bitrate=1686 / ratetol=1.0 / qcomp=0.60 / qpmin=0 / qpmax=69 / qpstep=4 / cplxblur=20.0 / qblur=0.5 / vbv_maxrate=50000 / vbv_bufsize=62500 / nal_hrd=none / filler=0 / ip_ratio=1.40 / pb_ratio=1.30 / aq=3:1.00 / zones=138600,145268,q=35
    Default : Yes
    Forced : No
    Audio
    ID : 2
    Format : AC-3
    Format/Info : Audio Coding 3
    Mode extension : CM (complete main)
    Format settings, Endianness : Big
    Codec ID : A_AC3
    Duration : 1h 40mn
    Bit rate mode : Constant
    Bit rate : 384 Kbps
    Channel(s) : 6 channels
    Channel positions : Front: L C R, Side: L R, LFE
    Sampling rate : 48.0 KHz
    Bit depth : 16 bits
    Compression mode : Lossy
    Stream size : 277 MiB (19%)
    Title : Dub
    Language : Russian
    Default : No
    Forced : No
    Text #1
    ID : 3
    Format : UTF-8
    Codec ID : S_TEXT/UTF8
    Codec ID/Info : UTF-8 Plain Text
    Language : Russian
    Default : No
    Forced : No
    Text #2
    ID : 4
    Format : UTF-8
    Codec ID : S_TEXT/UTF8
    Codec ID/Info : UTF-8 Plain Text
    Language : English
    Default : No
    Forced : No
    Menu
    00:00:00.000 : en:00:00:00.000
    00:03:27.874 : en:00:03:27.874
    00:06:40.650 : en:00:06:40.650
    00:11:14.507 : en:00:11:14.507
    00:16:12.471 : en:00:16:12.471
    00:21:15.774 : en:00:21:15.774
    00:25:08.215 : en:00:25:08.215
    00:30:08.765 : en:00:30:08.765
    00:33:42.771 : en:00:33:42.771
    00:36:59.342 : en:00:36:59.342
    00:42:13.114 : en:00:42:13.114
    00:46:31.122 : en:00:46:31.122
    00:50:37.660 : en:00:50:37.660
    00:54:47.493 : en:00:54:47.493
    00:57:49.925 : en:00:57:49.925
    01:00:40.095 : en:01:00:40.095
    01:03:23.008 : en:01:03:23.008
    01:06:02.083 : en:01:06:02.083
    01:11:18.524 : en:01:11:18.524
    01:17:23.472 : en:01:17:23.472
    01:21:11.825 : en:01:21:11.825
    01:25:32.502 : en:01:25:32.502
    01:31:35.156 : en:01:31:35.156
    01:34:48.850 : en:01:34:48.850
    FAQ по просмотру MKV/h.264/AAC
  • Смогу ли я запустить AVC фильм на своём компьютере?
  • Сампл из раздачи не воспроизводится/тормозит или отсутствует звук/изображение. Что делать?
  • Что такое H.264/AVC и зачем он нужен?
  • Что за дурацкий формат .MKV?
  • Почему MKV? Чем AVI хуже?
  • Не могу переключить/включить/выключить аудио/видео дорожки и/или субтитры. Что делать?
  • Как сделать так, чтобы по умолчанию при просмотре MKV файлов нужные/ненужные субтитры были включены/выключены, и/или сразу проигрывалась дорожка на нужном мне языке?
  • Будут ли фильмы в таком формате проигрываться на бытовых плеерах без компьютера?
  • Проигрываю фильм, а картинка очень сильно отличается от скринов/бледная/перенасыщенная. Что не так?
  • Можно ли сконвертировать AVC в DVD?
  • Почему сплюснута картинка / в характеристиках видео указано два разрешения / что такое анаморфное разрешение?
  • Зачем релизёры обманывают качающих и пишут в заголовке 720p/1080p, а на самом деле раздают видеоматериалы в непонятных разрешениях?
  • Можно ли вывести многоканальный FLAC/AAC-звук на внешний ресивер?
  • У меня 2-канальная акустика/стереонаушники. При просмотре видео почти не слышно/совсем не слышно речь/разговоры, играют только фоновые звуки. Что делать?
  • У меня стоит CoreAVC версии 1.9.5 или младше. При воспроизведении картинка рассыпается на квадраты и разноцветные пятна. Кривой рип?
  • Всё прочитал(-а), решения своей проблемы не нашёл(-шла)/не смог(-ла) разобраться. Что делать?
    Скачать .torrent

    Скачать торрент-файл бесплатно и на максимальной скорости!

    Как скачивать? · Что такое торрент? · Рейтинг и ограничения

    !ВНИМАНИЕ!
    Сайт не распространяет и не хранит электронные версии произведений, а занимается лишь лишь предоставлением доступа к создаваемому пользователями каталогу ссылок на торрент-файлы, которые содержат только списки хеш-сумм, убедительная просьба с жалобами обращаться напрямую к пользователю. Файлы для обмена на трекере предоставлены пользователями сайта, и администрация не несёт ответственности за их содержание. Просьба не заливать файлы, защищенные авторскими правами, а также файлы нелегального содержания!


  • _________________
    [Профиль] [ЛС]
    Показать сообщения:    
    Ответить на тему

    Текущее время: Сегодня, в 20:42

    Часовой пояс: GMT + 2



    Вы не можете начинать темы
    Вы не можете отвечать на сообщения
    Вы не можете редактировать свои сообщения
    Вы не можете удалять свои сообщения
    Вы не можете голосовать в опросах
    Вы не можете прикреплять файлы к сообщениям
    Вы не можете скачивать файлы