BitTorrentTracker PerecTracker.org
BitTorrentTracker PerecTracker.org
    
Регистрация  ·  Вход
 
 · 
Забыли пароль?

  • Восторг Палуза / Rapture-Palooza (Пол Миддледитч / Paul Middleditch) [2013, США, комедия, DVB] [Open Matte] MVO (ТНТ)

    Ответить на тему
     
    Автор Сообщение

    Light

    Создавать темы 20-Апр-2015 17:48

           

    [Цитировать]

    Восторг Палуза
    Rapture-Palooza
    Open Matte

    Страна: США
    Жанр: фэнтези, комедия
    Год выпуска: 2013
    Продолжительность: 01:21:19-Перевод: Профессиональный (многоголосый закадровый) ТНТ
    Озвучен по заказу ТНТ в 2014 году
    Cубтитры: нет
    Оригинальная аудиодорожка: нет-Режиссер: Пол Миддледитч / Paul Middleditch
    В ролях: Джон Фрэнсис Дейли, Анна Кендрик, Крэйг Робинсон, Роб Кордри, Ана Гастейер, Томас Леннон, Роб Хюбель, Пол Шеер, Тайлер Лабин, Дарси Майкл, Майк О’Коннелл, Кен Жонг-Описание: Трэшевая черная комедия про наступивший Конец Света. В центре сюжета лежит веселая история о последствиях религиозного апокалипсиса. Богобоязненные христиане вознесутся на небо, а что делать оставшимся на земле, когда их мир рухнет, с неба начнут падать огненные камни, и из тьмы выйдет Антихрист, чтобы обзавестись наследником? Примут ли они новую действительность как норму, или будут бороться?-Доп. информация: Open Matte
    DVB имеет иное наполнение кадра, чем BD-Сэмпл: минута53сек-Качество видео: DVB
    Формат видео: MPEG-PS
    Видео: MPEG Video, 720x576, 4:3, 25,000 кадров/сек, 3525 Кбит/сек
    Аудио: MP2, 48,0 КГц, 192 Кбит/сек, 2 канала (многоголосый ТНТ)

    Сравнение с miha2154

    HDRip 5 скринов

    Сравнение

    BDRip


    MediaInfo

    Общее
    Полное имя : D:\с диска Е\инет\Раздачи\Восторг Палуза.2013.FullScreen\Восторг Палуза-2015.04.18.mpg
    Формат : MPEG-PS
    Размер файла : 2,15 Гбайт
    Продолжительность : 1 ч. 21 м.
    Режим общего битрейта : Переменный
    Общий поток : 3793 Кбит/сек
    Видео
    Идентификатор : 224 (0xE0)
    Формат : MPEG Video
    Версия формата : Version 2
    Профиль формата : Main@Main
    Параметр BVOP формата : Да
    Параметр матрицы формата : Выборочная
    Параметр GOP формата : Variable
    Продолжительность : 1 ч. 21 м.
    Вид битрейта : Переменный
    Битрейт : 3525 Кбит/сек
    Максимальный битрейт : 15,0 Мбит/сек
    Ширина : 720 пикселей
    Высота : 576 пикселей
    Соотношение сторон : 4:3
    Частота кадров : 25,000 кадров/сек
    Стандарт вещания : PAL
    Цветовое пространство : YUV
    Субдискретизация насыщенности : 4:2:0
    Битовая глубина : 8 бит
    Тип развёртки : Прогрессивная
    Порядок развёртки : Верхнее поле первое
    Метод сжатия : С потерями
    Бит/(Пиксели*Кадры) : 0.340
    Временной код первого кадра : 00:00:00:00
    Оригинал временного кода : Group of pictures header
    GOP, открыто/закрыто : Открыто
    Размер потока : 2,00 Гбайт (93%)
    Аудио
    Идентификатор : 192 (0xC0)
    Формат : MPEG Audio
    Версия формата : Version 1
    Профиль формата : Layer 2
    Режим : Dual mono
    Расширение режима : MS Stereo
    Продолжительность : 1 ч. 21 м.
    Вид битрейта : Постоянный
    Битрейт : 192 Кбит/сек
    Каналы : 2 канала
    Частота : 48,0 КГц
    Метод сжатия : С потерями
    Задержка видео : 16 мс.
    Размер потока : 112 Мбайт (5%)

    Скриншот c названием фильма

    Скриншоты

    Скачать .torrent

    Скачать торрент-файл бесплатно и на максимальной скорости!

    Как скачивать? · Что такое торрент? · Рейтинг и ограничения

    !ВНИМАНИЕ!
    Сайт не распространяет и не хранит электронные версии произведений, а занимается лишь лишь предоставлением доступа к создаваемому пользователями каталогу ссылок на торрент-файлы, которые содержат только списки хеш-сумм, убедительная просьба с жалобами обращаться напрямую к пользователю. Файлы для обмена на трекере предоставлены пользователями сайта, и администрация не несёт ответственности за их содержание. Просьба не заливать файлы, защищенные авторскими правами, а также файлы нелегального содержания!


    _________________
    [Профиль] [ЛС]
    Показать сообщения:    
    Ответить на тему

    Текущее время: Сегодня, в 05:18

    Часовой пояс: GMT + 2



    Вы не можете начинать темы
    Вы не можете отвечать на сообщения
    Вы не можете редактировать свои сообщения
    Вы не можете удалять свои сообщения
    Вы не можете голосовать в опросах
    Вы не можете прикреплять файлы к сообщениям
    Вы не можете скачивать файлы