BitTorrentTracker PerecTracker.org
BitTorrentTracker PerecTracker.org
    
Регистрация  ·  Вход
 
 · 
Забыли пароль?

  • Долгота дня (Валериу Гажиу) [1974, драма, биографический, VHSRip]

    Ответить на тему
     
    Автор Сообщение

    Light

    Создавать темы 20-Апр-2015 01:00

           

    [Цитировать]

    Долгота дня
    Жанр: драма, биографический
    Год выпуска: 1974
    Продолжительность: 1:10:18
    Режиссёр: Валериу Гажиу
    В ролях: Виктор Чутак, Константин Константинов, Валентина Малявина, Думитру Фусу, Владимир Пинчук, Ион Аракелу, Петр (Петря) Баракчи, Ион Бордеяну, Евгения Ботнару, Вадим Вильский, Ион Горя, Трифон Грузин, Думитру Карачобану, Михай Курагэу, Павел Махотин, Георгий Хассо, Вадим Яковлев, Елена Максимова, Мефодий Апостолов, Илие Гуцу, Домника Дариенко, Иван Музыка, Ион Скутельник, Дина Коча
    Описание: О жизненном пути коммуниста Штефана Бардэ, вступившего в 1920-е годы в борьбу за освобождение Бессарабии, оккупированной войсками королевской Румынии.
    Семпл: https://www.sendspace.com/file/qf5kz7
    Качество видео: VHSRip
    Формат видео: AVI
    Видео: 832x320 (2.60:1)), 25 fps, XviD build 50, 2009 kbps avg,0.30 bit/pixel
    Аудио: 44.100 kHz, MPEG Layer 3, 2 ch, 96.07 kbps avg

    MediaInfo

    Общее
    Полное имя : E:\Долгота дня .1974.avi
    Формат : AVI
    Формат/Информация : Audio Video Interleave
    Профиль формата : OpenDML
    Размер файла : 1,04 Гбайт
    Продолжительность : 1 ч. 10 м.
    Режим общего битрейта : Переменный
    Общий поток : 2112 Кбит/сек
    Программа кодирования : MEncoder Sherpya-SVN-r32492-4.2.5
    Библиотека кодирования : MPlayer
    Видео
    Идентификатор : 0
    Формат : MPEG-4 Visual
    Профиль формата : Simple@L3
    Параметр BVOP формата : Нет
    Параметр QPel формата : Нет
    Параметр GMC формата : Без точки перехода
    Параметр матрицы формата : Default (H.263)
    Идентификатор кодека : XVID
    Идентификатор кодека/Подсказка : XviD
    Продолжительность : 1 ч. 10 м.
    Битрейт : 2000 Кбит/сек
    Ширина : 832 пикселя
    Высота : 320 пикселей
    Соотношение сторон : 2,604
    Соотношение сторон в оригинале : 2,600
    Частота кадров : 25,000 кадров/сек
    Цветовое пространство : YUV
    Субдискретизация насыщенности : 4:2:0
    Битовая глубина : 8 бит
    Тип развёртки : Прогрессивная
    Метод сжатия : С потерями
    Бит/(Пиксели*Кадры) : 0.300
    Размер потока : 1006 Мбайт (95%)
    Библиотека кодирования : XviD 1.2.1 (UTC 2008-12-04)
    Аудио
    Идентификатор : 1
    Формат : MPEG Audio
    Версия формата : Version 1
    Профиль формата : Layer 3
    Режим : Joint stereo
    Идентификатор кодека : 55
    Идентификатор кодека/Подсказка : MP3
    Продолжительность : 1 ч. 10 м.
    Вид битрейта : Переменный
    Битрейт : 96,0 Кбит/сек
    Каналы : 2 канала
    Частота : 44,1 КГц
    Метод сжатия : С потерями
    Размер потока : 48,3 Мбайт (5%)
    Выравнивание : Соединение по промежуткам
    Продолжительность промежутка : 26 мс. (0,65 видеокадр)
    Время предзагрузки промежутка : 390 мс.

    Скриншоты

    Скачать .torrent

    Скачать торрент-файл бесплатно и на максимальной скорости!

    Как скачивать? · Что такое торрент? · Рейтинг и ограничения

    !ВНИМАНИЕ!
    Сайт не распространяет и не хранит электронные версии произведений, а занимается лишь лишь предоставлением доступа к создаваемому пользователями каталогу ссылок на торрент-файлы, которые содержат только списки хеш-сумм, убедительная просьба с жалобами обращаться напрямую к пользователю. Файлы для обмена на трекере предоставлены пользователями сайта, и администрация не несёт ответственности за их содержание. Просьба не заливать файлы, защищенные авторскими правами, а также файлы нелегального содержания!


    _________________
    [Профиль] [ЛС]
    Показать сообщения:    
    Ответить на тему

    Текущее время: Сегодня, в 12:43

    Часовой пояс: GMT + 2



    Вы не можете начинать темы
    Вы не можете отвечать на сообщения
    Вы не можете редактировать свои сообщения
    Вы не можете удалять свои сообщения
    Вы не можете голосовать в опросах
    Вы не можете прикреплять файлы к сообщениям
    Вы не можете скачивать файлы