BitTorrentTracker PerecTracker.org
BitTorrentTracker PerecTracker.org
    
Регистрация  ·  Вход
 
 · 
Забыли пароль?

  • Дикая семейка Торнберри / The Wild Thornberrys Movie (Кэти Малкасиан / Cathy Malkasian, Джефф МакГрат / Jeff McGrath) [2002, мультфильм, фэнтези, комедия, WEB-DLRip] 2xDUB + MVO + DVO + VO + UKR + Original Eng + Eng Sub

    Ответить на тему
     
    Автор Сообщение

    rechyn

    Создавать темы 20-Апр-2015 01:00

           

    [Цитировать]

    Дикая семейка Торнберри / The Wild Thornberrys Movie«This Could Be The Beginning Of A Beautiful Adventure»-Страна: США
    Жанр: мультфильм, фэнтези, комедия, приключения, семейный
    Год выпуска: 2002
    Продолжительность: 01:25:21
    Перевод: Профессиональный (Дублированный) - CTC
    Перевод 2: Профессиональный (Дублированный) - THT
    Перевод 3: Профессиональный (Многоголосый закадровый)
    Перевод 4: Профессиональный (Двухголосый закадровый) - П.Гланц и Н.Казакова
    Перевод 5: Одноголосый закадровый - Е.Рудой
    Русские субтитры: Нет-Режиссер: Кэти Малкасиан / Cathy Malkasian, Джефф МакГрат / Jeff McGrath-Описание: Этот мультфильм рассказывает историю мультяшного семейства, которое путешествует по всему миру. Двенадцатилетняя Элиза попадает в Африку, где встречает таинственного шамана, который дарит ей возможность разговаривать с животными. Но существует одно правило - чтобы не потерять этот волшебный дар, девочка не должна никому о нем рассказывать!
    Однажды Элиза узнает, что браконьеры планируют уничтожать стадо слонов и решает помочь бедным животным при помощи ее верных друзей: Дарвина и ее домашнего животного Чимпа.-Рейтинг:

    MPAA: - Рекомендуется присутствие родителей-Бюджет: $25 000 000
    Маркетинг: $22 000 000
    Сборы в США: $40 108 697
    Сборы в мире: $60 694 737
    Мировая премьера: 8 сентября 2002-Релиз: -Качество: WEB-DLRip
    Формат: AVI
    Видео: 720x304 (2.37:1), 23.976 fps, XviD build 65 ~2240 kbps avg, 0.43 bit/pixel
    Аудио #1: [RUS] 48 kHz, AC3 Dolby Digital, 2/0 (L,R) ch, ~192 kbps - DUB_CTC
    Аудио #2: [RUS] 48 kHz, AC3 Dolby Digital, 2/0 (L,R) ch, ~192 kbps - DUB_THT
    Аудио #3: [RUS] 48 kHz, AC3 Dolby Digital, 3/2 (L,C,R,l,r) + LFE ch, ~384 kbps - MVO
    Аудио #4: [RUS] 48 kHz, AC3 Dolby Digital, 3/2 (L,C,R,l,r) + LFE ch, ~448 kbps - DVO_П.Гланц и Н.Казакова
    Аудио #5: [RUS] 48 kHz, AC3 Dolby Digital, 3/2 (L,C,R,l,r) + LFE ch, ~448 kbps - VO_Е.Рудой
    Аудио #6: [UKR] 48 kHz, AC3 Dolby Digital, 2/0 (L,R) ch, ~192 kbps - MVO_Inter
    Аудио #7: [ENG] 48 kHz, AC3 Dolby Digital, 3/2 (L,C,R,l,r) + LFE ch, ~448 kbps
    Субтитры: английские-

    MI

    Wild Thornberrys Movie\The Wild Thornberrys Movie.aviFormat : AVIFormat/Info : Audio Video InterleaveFile size : 1.46 GiBDuration : 1h 25mnOverall bit rate : 2 442 KbpsWriting application : VirtualDubMod 1.5.10.3 | www.virtualdub-fr.org || (build 2550/release)Writing library : VirtualDubMod build 2550/release
    VideoID : 0Format : MPEG-4 VisualFormat profile : Advanced Simple@L5Format settings, BVOP : 2Format settings, QPel : NoFormat settings, GMC : No warppointsFormat settings, Matrix : CustomCodec ID : XVIDCodec ID/Hint : XviDDuration : 1h 25mnBit rate : 2 241 KbpsWidth : 720 pixelsHeight : 304 pixelsDisplay aspect ratio : 2.35:1Frame rate : 23.976 fpsColor space : YUVChroma subsampling : 4:2:0Bit depth : 8 bitsScan type : ProgressiveCompression mode : LossyBits/(Pixel*Frame) : 0.427Stream size : 1.34 GiB (92%)Writing library : XviD 65
    AudioID : 1Format : AC-3Format/Info : Audio Coding 3Mode extension : CM (complete main)Format settings, Endianness : BigCodec ID : 2000Duration : 1h 25mnBit rate mode : ConstantBit rate : 192 KbpsChannel(s) : 2 channelsChannel positions : Front: L RSampling rate : 48.0 KHzBit depth : 16 bitsCompression mode : LossyStream size : 117 MiB (8%)Alignment : Split accross interleavesInterleave, duration : 42 ms (1.00 video frame)Interleave, preload duration : 500 ms
    Все раздачи мультфильма!
    Скачать .torrent

    Скачать торрент-файл бесплатно и на максимальной скорости!

    Как скачивать? · Что такое торрент? · Рейтинг и ограничения

    !ВНИМАНИЕ!
    Сайт не распространяет и не хранит электронные версии произведений, а занимается лишь лишь предоставлением доступа к создаваемому пользователями каталогу ссылок на торрент-файлы, которые содержат только списки хеш-сумм, убедительная просьба с жалобами обращаться напрямую к пользователю. Файлы для обмена на трекере предоставлены пользователями сайта, и администрация не несёт ответственности за их содержание. Просьба не заливать файлы, защищенные авторскими правами, а также файлы нелегального содержания!


    _________________
    [Профиль] [ЛС]
    Показать сообщения:    
    Ответить на тему

    Текущее время: Сегодня, в 08:05

    Часовой пояс: GMT + 2



    Вы не можете начинать темы
    Вы не можете отвечать на сообщения
    Вы не можете редактировать свои сообщения
    Вы не можете удалять свои сообщения
    Вы не можете голосовать в опросах
    Вы не можете прикреплять файлы к сообщениям
    Вы не можете скачивать файлы