BitTorrentTracker PerecTracker.org
BitTorrentTracker PerecTracker.org
    
Регистрация  ·  Вход
 
 · 
Забыли пароль?

  • Безумные / The Demented (Кристофер Рузвельт / Christopher Roosevelt) [2013, США, ужасы, фантастика, триллер, драма, BDRip-AVC] MVO + Original (Eng) + Sub (Rus, Eng)

    Ответить на тему
     
    Автор Сообщение

    Light

    Создавать темы 20-Апр-2015 01:00

           

    [Цитировать]

    Безумные / The Demented
    Страна: США
    Жанр: ужасы, фантастика, триллер, драма
    Год выпуска: 2013
    Продолжительность: 01:32:05
    Перевод: Профессиональный (многоголосый закадровый) - online movies
    Оригинальная аудиодорожка: английский
    Cубтитры: русские (by rashstep), английские (полные и SDH)-Режиссер: Кристофер Рузвельт / Christopher Roosevelt
    В ролях: Кайла Юэлл (Taylor), Ричард Конке (David), Эшли Брайен (Brice), Бриттни Элгер (Naomi), Сара Батлер (Sharley), Майкл Уэлш (Howard), Крис Эшворт (Military Soldier)-Описание: Шестеро друзей-студентов собираются вместе на выходные, где им приходится бороться за свою жизнь после террористической атаки, превратившей местных жителей в яростных зомби.-СЭМПЛ
    Тип релиза: BDRip-AVC
    Исходник: The.Demented.2013.BluRay.COMPLETE-INSECTS, спасибо Vovec-800
    Контейнер: MKV
    Видео: 1152x646p / 23.976 fps / 16:9 / High Profile 4.1 / AVC / ~ 2498 Kbps
    Аудио 1: AC3 / 448 Kbps / 5.1 / 48 kHz / Russian / MVO (online movies)
    Аудио 2: AC3 / 448 Kbps / 5.1 / 48 kHz / English / original
    Формат субтитров: softsub (SRT)-IMDB * КиноПоиск-Примечание: Русские субтитры набраны и отредактированы мной по переводу krilatkin, Антон Кедров.

    MediaInfo / x264 log

    General
    Complete name : The.Demented.2013.BDRip-AVC.MVO.mkv
    Format : Matroska
    Format version : Version 2
    File size : 2.18 GiB
    Duration : 1h 32mn
    Overall bit rate : 3 393 Kbps
    Encoded date : UTC 2015-04-19 17:22:54
    Writing application : mkvmerge v5.8.0 ('No Sleep / Pillow') built on Sep 2 2012 15:37:04
    Writing library : libebml v1.2.3 + libmatroska v1.3.0
    Video
    ID : 1
    Format : AVC
    Format/Info : Advanced Video Codec
    Format profile : High@L4.1
    Format settings, CABAC : Yes
    Format settings, ReFrames : 11 frames
    Codec ID : V_MPEG4/ISO/AVC
    Duration : 1h 32mn
    Bit rate : 2 498 Kbps
    Width : 1 152 pixels
    Height : 646 pixels
    Display aspect ratio : 16:9
    Frame rate mode : Constant
    Frame rate : 23.976 fps
    Color space : YUV
    Chroma subsampling : 4:2:0
    Bit depth : 8 bits
    Scan type : Progressive
    Bits/(Pixel*Frame) : 0.140
    Stream size : 1.56 GiB (72%)
    Title : The Demented 2013 BDRip-AVC MVO
    Writing library : x264 core 144 r2525 40bb568
    Encoding settings : cabac=1 / ref=11 / deblock=1:-3:-3 / analyse=0x3:0x113 / me=umh / subme=11 / psy=1 / psy_rd=1.05:0.00 / mixed_ref=1 / me_range=24 / chroma_me=1 / trellis=2 / 8x8dct=1 / cqm=0 / deadzone=21,11 / fast_pskip=1 / chroma_qp_offset=-2 / threads=6 / lookahead_threads=1 / sliced_threads=0 / nr=0 / decimate=1 / interlaced=0 / bluray_compat=0 / constrained_intra=0 / bframes=9 / b_pyramid=2 / b_adapt=2 / b_bias=0 / direct=3 / weightb=1 / open_gop=0 / weightp=2 / keyint=240 / keyint_min=23 / scenecut=40 / intra_refresh=0 / rc=2pass / mbtree=0 / bitrate=2498 / ratetol=1.0 / qcomp=0.60 / qpmin=0 / qpmax=69 / qpstep=4 / cplxblur=20.0 / qblur=0.5 / ip_ratio=1.40 / pb_ratio=1.30 / aq=2:0.90
    Default : Yes
    Forced : No
    Audio #1
    ID : 2
    Format : AC-3
    Format/Info : Audio Coding 3
    Mode extension : CM (complete main)
    Format settings, Endianness : Big
    Codec ID : A_AC3
    Duration : 1h 32mn
    Bit rate mode : Constant
    Bit rate : 448 Kbps
    Channel(s) : 6 channels
    Channel positions : Front: L C R, Side: L R, LFE
    Sampling rate : 48.0 KHz
    Bit depth : 16 bits
    Compression mode : Lossy
    Stream size : 295 MiB (13%)
    Title : RUS AC3 448 Kbps 6ch MVO online movies
    Language : Russian
    Default : Yes
    Forced : No
    Audio #2
    ID : 3
    Format : AC-3
    Format/Info : Audio Coding 3
    Mode extension : CM (complete main)
    Format settings, Endianness : Big
    Codec ID : A_AC3
    Duration : 1h 32mn
    Bit rate mode : Constant
    Bit rate : 448 Kbps
    Channel(s) : 6 channels
    Channel positions : Front: L C R, Side: L R, LFE
    Sampling rate : 48.0 KHz
    Bit depth : 16 bits
    Compression mode : Lossy
    Stream size : 295 MiB (13%)
    Title : ENG AC3 448 Kbps 6ch original
    Language : English
    Default : No
    Forced : No
    Text #1
    ID : 4
    Format : UTF-8
    Codec ID : S_TEXT/UTF8
    Codec ID/Info : UTF-8 Plain Text
    Title : RUS Sub by rashstep
    Language : Russian
    Default : No
    Forced : No
    Text #2
    ID : 5
    Format : UTF-8
    Codec ID : S_TEXT/UTF8
    Codec ID/Info : UTF-8 Plain Text
    Title : ENG Sub
    Language : English
    Default : No
    Forced : No
    Text #3
    ID : 6
    Format : UTF-8
    Codec ID : S_TEXT/UTF8
    Codec ID/Info : UTF-8 Plain Text
    Title : ENG Sub SDH
    Language : English
    Default : No
    Forced : No
    Menu
    00:00:00.000 : :Chapter 01
    00:02:42.329 : :Chapter 02
    00:10:50.316 : :Chapter 03
    00:18:16.637 : :Chapter 04
    00:27:06.166 : :Chapter 05
    00:39:29.784 : :Chapter 06
    00:51:45.185 : :Chapter 07
    00:58:45.522 : :Chapter 08
    01:05:18.164 : :Chapter 09
    01:15:30.901 : :Chapter 10
    01:19:56.250 : :Chapter 11
    01:29:18.937 : :Chapter 12-x264 [info]: frame I:1229 Avg QP:14.87 size: 86984
    x264 [info]: frame P:35634 Avg QP:18.38 size: 24435
    x264 [info]: frame B:95593 Avg QP:20.36 size: 7792
    x264 [info]: consecutive B-frames: 6.4% 7.1% 11.1% 21.8% 14.7% 22.6% 5.7% 6.8% 2.3% 1.6%

    Скриншот с названием

    Скриншоты



    19.04.2015 торрент обновлен. Русская дорожка с любительским (двухголосым закадровым) переводом заменена на профессиональный (многоголосый закадровый) перевод.
    Скачать .torrent

    Скачать торрент-файл бесплатно и на максимальной скорости!

    Как скачивать? · Что такое торрент? · Рейтинг и ограничения

    !ВНИМАНИЕ!
    Сайт не распространяет и не хранит электронные версии произведений, а занимается лишь лишь предоставлением доступа к создаваемому пользователями каталогу ссылок на торрент-файлы, которые содержат только списки хеш-сумм, убедительная просьба с жалобами обращаться напрямую к пользователю. Файлы для обмена на трекере предоставлены пользователями сайта, и администрация не несёт ответственности за их содержание. Просьба не заливать файлы, защищенные авторскими правами, а также файлы нелегального содержания!


    _________________
    [Профиль] [ЛС]
    Показать сообщения:    
    Ответить на тему

    Текущее время: Сегодня, в 09:03

    Часовой пояс: GMT + 2



    Вы не можете начинать темы
    Вы не можете отвечать на сообщения
    Вы не можете редактировать свои сообщения
    Вы не можете удалять свои сообщения
    Вы не можете голосовать в опросах
    Вы не можете прикреплять файлы к сообщениям
    Вы не можете скачивать файлы