BitTorrentTracker PerecTracker.org
BitTorrentTracker PerecTracker.org
    
Регистрация  ·  Вход
 
 · 
Забыли пароль?

  • Дмитро Горицвит (Николай Макаренко) [1961, Cоциальная драма, экранизация, DVDRip]

    Ответить на тему
     
    Автор Сообщение

    Light

    Создавать темы 19-Апр-2015 16:36

           

    [Цитировать]

    Дмитро Горицвит
    Жанр: Cоциальная драма, экранизация
    Выпущено: СССР, К/ст им. Довженко
    Год выпуска: 1961
    Продолжительность: 01:26:45

    Режиссёр: Николай Макаренко
    В ролях: Анатолий Соловьёв, Майя Коханова, Раиса Недашковская, Евгений Бондаренко, Генрих Осташевский, Леонид Тарабаринов, Екатерина Литвиненко, Василий Дашенко, Полина Куманченко, Карина Шмаринова, Борис Ивченко, Александр Гай, Владимир Дальский, Людмила Марченко, Константин Артеменко, Евгений Балиев, Домиан Козачковский, Эдуард Воробьёв, Аркадий Гашинский, Мария Капнист
    Описание: По мотивам романа М.Стельмаха «Большая родня». Второй фильм кинотрилогии («Кровь людская — не водица», «Дмитрий Горицвит», «Люди не все знают») рассказывает об одном из первых колхозов Украины, борьбе с кулачеством и любви коммуниста Дмитра Горицвита к Марте — дочери петлюровца, виновного в смерти отца Дмитра.
    Доп. информация: Релиз:, рип vova68
    Семпл: http://multi-up.com/1043930
    Качество видео: DVDRip
    Формат видео: AVI

    Видео: 688x496 (1.39:1), 25 fps, DivX Codec 5.x or 6.x ~2115 kbps avg, 0.25 bit/pixel
    Аудио: 48 kHz, MPEG Layer 3, 2 ch, ~128.00 kbps avg - Русский многоголосый

    MediaInfo

    Общее
    Полное имя : D:\Дмитро Горицвит.avi
    Формат : AVI
    Формат/Информация : Audio Video Interleave
    Размер файла : 1,37 Гбайт
    Продолжительность : 1 ч. 26 м.
    Общий поток : 2253 Кбит/сек
    Программа кодирования : VirtualDubModRus 1.5.10.2 (build 2540/release)
    Библиотека кодирования : VirtualDubMod build 2540/release
    Видео
    Идентификатор : 0
    Формат : MPEG-4 Visual
    Параметр BVOP формата : 1
    Параметр QPel формата : Нет
    Параметр GMC формата : Без точки перехода
    Параметр матрицы формата : Default (H.263)
    Режим смешивания : Сжатый битовый поток
    Идентификатор кодека : DX50
    Идентификатор кодека/Подсказка : DivX 5
    Продолжительность : 1 ч. 26 м.
    Битрейт : 2116 Кбит/сек
    Ширина : 688 пикселей
    Высота : 496 пикселей
    Соотношение сторон : 1,387
    Частота кадров : 25,000 кадров/сек
    Цветовое пространство : YUV
    Субдискретизация насыщенности : 4:2:0
    Битовая глубина : 8 бит
    Тип развёртки : Прогрессивная
    Метод сжатия : С потерями
    Бит/(Пиксели*Кадры) : 0.248
    Размер потока : 1,28 Гбайт (94%)
    Библиотека кодирования : DivX 6.8.5 (UTC 2009-08-20)
    Аудио
    Идентификатор : 1
    Формат : MPEG Audio
    Версия формата : Version 1
    Профиль формата : Layer 3
    Режим : Joint stereo
    Расширение режима : MS Stereo
    Идентификатор кодека : 55
    Идентификатор кодека/Подсказка : MP3
    Продолжительность : 1 ч. 26 м.
    Вид битрейта : Постоянный
    Битрейт : 128 Кбит/сек
    Каналы : 2 канала
    Частота : 48,0 КГц
    Метод сжатия : С потерями
    Размер потока : 79,4 Мбайт (6%)
    Выравнивание : Соединение по промежуткам
    Продолжительность промежутка : 40 мс. (1,00 видеокадр)
    Время предзагрузки промежутка : 504 мс.
    Библиотека кодирования : LAME3.97b
    Настройки программы : -m j -V 4 -q 2 -lowpass 17 -b 128

    Скриншоты

    Скачать .torrent

    Скачать торрент-файл бесплатно и на максимальной скорости!

    Как скачивать? · Что такое торрент? · Рейтинг и ограничения

    !ВНИМАНИЕ!
    Сайт не распространяет и не хранит электронные версии произведений, а занимается лишь лишь предоставлением доступа к создаваемому пользователями каталогу ссылок на торрент-файлы, которые содержат только списки хеш-сумм, убедительная просьба с жалобами обращаться напрямую к пользователю. Файлы для обмена на трекере предоставлены пользователями сайта, и администрация не несёт ответственности за их содержание. Просьба не заливать файлы, защищенные авторскими правами, а также файлы нелегального содержания!


    _________________
    [Профиль] [ЛС]
    Показать сообщения:    
    Ответить на тему

    Текущее время: Сегодня, в 14:46

    Часовой пояс: GMT + 2



    Вы не можете начинать темы
    Вы не можете отвечать на сообщения
    Вы не можете редактировать свои сообщения
    Вы не можете удалять свои сообщения
    Вы не можете голосовать в опросах
    Вы не можете прикреплять файлы к сообщениям
    Вы не можете скачивать файлы