BitTorrentTracker PerecTracker.org
BitTorrentTracker PerecTracker.org
    
Регистрация  ·  Вход
 
 · 
Забыли пароль?

  • Песня первой любви (Лаэрт Вагаршян, Юрий Ерзинкян) [1958, Мелодрама, DVB, AVC]

    Ответить на тему
     
    Автор Сообщение

    Light

    Создавать темы 19-Апр-2015 16:36

           

    [Цитировать]

    Песня первой любви
    Жанр: Мелодрама
    Год выпуска: 1958
    Продолжительность: 01:37:22
    Режиссёр: Лаэрт Вагаршян, Юрий Ерзинкян
    В ролях: Хорен Абрамян, Э.Судакова, Рачия Нерсесян, Вагарш Вагаршян, Семен Соколовский, О.Гулазян, А.Согомонян, Н.Тер-Семенов, Варшалус Мириджанян, Т.Киманян-Ланько, А.Селимханов, Т.Бахшинян, А.Каракаш, Амаси Мартиросян, И.Грикуров, Т.Дилакян
    Описание: Старый ереванский двор. Свой мир. Молодой певец Арсен, рано познавший славу, не может справится в ее грузом. Распадается семья, пропадает голос. Любящий жену Арсена архитектор Варужан помогает ему вновь обрести веру с свой талант и вернуть любовь жены.
    Доп. информация: Запись потока *.ts со спутника ABS-2, 75° в.д., ремукс в *.mkv программой VideoReDo.
    Качество видео: DVB
    Формат видео: MKV
    Видео: Advanced Video Codec, 720(768)x576 (4:3), 25,000 кадров/сек, 3087 Кбит/сек
    Аудио: MPEG Audio, 48,0 КГц, 2 канала, 192 Кбит/сек

    MediaInfo

    Общее
    Уникальный идентификатор : 217073950694022209192765545809126648640 (0xA34EEC13E90304999FF898600DE86B40)
    Полное имя : D:\Torrent\ПЕСНЯ ПЕРВОЙ ЛЮБВИ (Kultura 75).mkv
    Формат : Matroska
    Версия формата : Version 2
    Размер файла : 2,28 Гбайт
    Продолжительность : 1 ч. 37 м.
    Общий поток : 3346 Кбит/сек
    Программа кодирования : Lavf52.64.2
    Библиотека кодирования : Lavf52.64.2
    Видео
    Идентификатор : 1
    Формат : AVC
    Формат/Информация : Advanced Video Codec
    Профиль формата : High@L3.0
    Параметр CABAC формата : Да
    Параметр ReFrames формата : 4 кадра
    Параметр GOP формата : M=4, N=32
    Идентификатор кодека : V_MPEG4/ISO/AVC
    Продолжительность : 1 ч. 37 м.
    Битрейт : 3087 Кбит/сек
    Ширина : 720 пикселей
    Высота : 576 пикселей
    Соотношение сторон : 4:3
    Соотношение сторон в оригинале : 4:3
    Режим частоты кадров : Постоянный
    Частота кадров : 25,000 кадров/сек
    Стандарт вещания : PAL
    Цветовое пространство : YUV
    Субдискретизация насыщенности : 4:2:0
    Битовая глубина : 8 бит
    Тип развёртки : MBAFF
    Бит/(Пиксели*Кадры) : 0.298
    Размер потока : 2,10 Гбайт (92%)
    Default : Да
    Forced : Нет
    Аудио
    Идентификатор : 2
    Формат : MPEG Audio
    Версия формата : Version 1
    Профиль формата : Layer 2
    Режим : Joint stereo
    Расширение режима : Intensity Stereo + MS Stereo
    Идентификатор кодека : A_MPEG/L2
    Идентификатор кодека/Подсказка : MP2
    Продолжительность : 1 ч. 37 м.
    Вид битрейта : Постоянный
    Битрейт : 192 Кбит/сек
    Каналы : 2 канала
    Частота : 48,0 КГц
    Метод сжатия : С потерями
    Размер потока : 134 Мбайт (6%)
    Язык : English
    Default : Да
    Forced : Нет

    Скриншоты

    Скачать .torrent

    Скачать торрент-файл бесплатно и на максимальной скорости!

    Как скачивать? · Что такое торрент? · Рейтинг и ограничения

    !ВНИМАНИЕ!
    Сайт не распространяет и не хранит электронные версии произведений, а занимается лишь лишь предоставлением доступа к создаваемому пользователями каталогу ссылок на торрент-файлы, которые содержат только списки хеш-сумм, убедительная просьба с жалобами обращаться напрямую к пользователю. Файлы для обмена на трекере предоставлены пользователями сайта, и администрация не несёт ответственности за их содержание. Просьба не заливать файлы, защищенные авторскими правами, а также файлы нелегального содержания!


    _________________
    [Профиль] [ЛС]
    Показать сообщения:    
    Ответить на тему

    Текущее время: Сегодня, в 09:59

    Часовой пояс: GMT + 2



    Вы не можете начинать темы
    Вы не можете отвечать на сообщения
    Вы не можете редактировать свои сообщения
    Вы не можете удалять свои сообщения
    Вы не можете голосовать в опросах
    Вы не можете прикреплять файлы к сообщениям
    Вы не можете скачивать файлы