BitTorrentTracker PerecTracker.org
BitTorrentTracker PerecTracker.org
    
Регистрация  ·  Вход
 
 · 
Забыли пароль?

  • Сталин с нами (Фильмы 1-6) (Владимир Чернышёв) [2012, Документально-художественный, SATRip]

    Ответить на тему
     
    Автор Сообщение

    -sasha2006

    Создавать темы 28-Мар-2013 21:17

           

    [Цитировать]

    Сталин с нами-Год выпуска: 2012
    Страна: Россия
    Жанр: Документально-художественный
    Продолжительность: 3 х 01:36:01
    Перевод: Не требуется
    Русские субтитры: нет
    Режиссер: Владимир Чернышёв
    Описание: Со дня смерти Иосифа Сталина прошло более полувека. Однако его реальная личность по сей день скрыта от нас пеленой многочисленных, противоречивых мифов.
    До сих пор о жизни и деятельности Иосифа Виссарионовича Сталина не утихают ожесточенные споры, способные по-настоящему рассорить даже самых близких людей… Он как будто по-прежнему с нами, все еще вершит судьбы, не оставляя возможности смотреть на него бесстрастно, как на историческую фигуру.
    Документально-художественный цикл обозревателя НТВ Владимира Чернышёва выходит в шестидесятую годовщину со дня смерти самого известного в мире советского вождя. Автор предпримет попытку показать Сталина без упрощений и крайностей, без ретуши и густой черной краски.
    При помощи реконструкций и художественных съемок, важнейших документальных свидетельств, воспоминаний очевидцев и комментариев авторитетных историков, создатели проекта постараются проследить жизненный путь, а также зафиксировать сложную эволюцию характера, взглядов и поступков «вождя народов». Впервые они пройдут его путем на телеэкране – от нищего домика в Грузии до высоких кремлевских кабинетов.
    Съемочная группа Владимира Чернышёва побывает в Гори, где прошло детство Сталина, в Тбилиси, где он учился в семинарии, и в Баку, где начиналась его революционная деятельность. Зрители увидят места ссылок Сталина в России и города, с которыми была напрямую связана его дальнейшая партийная карьера.

    Владимир Чернышёв

    Родился 12 апреля 1972 года в Москве. В 1994 году закончил факультет журналистики МГУ. В 1994–1996 гг. работал в информационном агентстве «Постфактум» и в программе «Городские новости» телекомпании ВКТ.
    В 1996–2001 гг. — корреспондент информационной службы телекомпании НТВ.
    В 2001–2002 гг. — обозреватель службы информации телекомпании ТВ-6.
    С 2002 года — корреспондент службы информации НТВ. За годы работы в телекомпании делал репортажи для программ «Сегодня», «Итоги», «Намедни». Основная специализация — политика: все десять лет работы на НТВ прилежно наблюдал и пересказывал зрителям, как творилась новейшая история России — в кулуарах Думы, в кабинетах правительства и в коридорах Кремля. В 2007 году награжден медалью ордена «За заслуги перед Отечеством» I степени.
    Автор и ведущий документального фильма «СССР. Крах империи».
    Автор документального фильма «Эффект Домино. Февральская революция в судьбе России».
    Автор и ведущий документального цикла «Сталин с нами».
    Женат, воспитывает сына.
    качество: SATRip
    формат: AVI
    Видео: 704x400 (1.76:1), 25 fps, XviD MPEG-4 ~1644 kbps avg, 0.23 bit/pixel
    Аудио: 48 kHz, MPEG Layer 3, 2 ch, ~128.00 kbps avg

    MediaInfo

    Формат : AVI
    Формат/Информация : Audio Video Interleave
    Размер файла : 1,20 Гбайт
    Продолжительность : 1 ч. 36 м.
    Общий поток : 1783 Кбит/сек
    Библиотека кодирования : VirtualDub build 34670/release
    Видео
    Идентификатор : 0
    Формат : MPEG-4 Visual
    Профиль формата : Advanced Simple@L5
    Параметр BVOP формата : 2
    Параметр QPel формата : Нет
    Параметр GMC формата : Без точки перехода
    Параметр матрицы формата : Default (MPEG)
    Режим смешивания : Сжатый битовый поток
    Идентификатор кодека : XVID
    Идентификатор кодека/Подсказка : XviD
    Продолжительность : 1 ч. 36 м.
    Битрейт : 1645 Кбит/сек
    Ширина : 704 пикселя
    Высота : 400 пикселей
    Соотношение сторон : 16:9
    Частота кадров : 25,000 кадров/сек
    Цветовое пространство : YUV
    Субдискретизация насыщенности : 4:2:0
    Битовая глубина : 8 бит
    Тип развёртки : Прогрессивная
    Метод сжатия : С потерями
    Бит/(Пиксели*Кадры) : 0.234
    Размер потока : 1,10 Гбайт (92%)
    Библиотека кодирования : XviD 64
    Аудио
    Идентификатор : 1
    Формат : MPEG Audio
    Версия формата : Version 1
    Профиль формата : Layer 3
    Режим : Joint stereo
    Расширение режима : MS Stereo
    Идентификатор кодека : 55
    Идентификатор кодека/Подсказка : MP3
    Продолжительность : 1 ч. 36 м.
    Вид битрейта : Постоянный
    Битрейт : 128 Кбит/сек
    Каналы : 2 канала
    Частота : 48,0 КГц
    Метод сжатия : С потерями
    Размер потока : 87,9 Мбайт (7%)
    Выравнивание : Разделение по промежуткам
    Продолжительность промежутка : 40 мс. (1,00 видеокадр)
    Время предзагрузки промежутка : 500 мс.

    Скриншоты

    Скачать .torrent

    Скачать торрент-файл бесплатно и на максимальной скорости!

    Как скачивать? · Что такое торрент? · Рейтинг и ограничения

    !ВНИМАНИЕ!
    Сайт не распространяет и не хранит электронные версии произведений, а занимается лишь лишь предоставлением доступа к создаваемому пользователями каталогу ссылок на торрент-файлы, которые содержат только списки хеш-сумм, убедительная просьба с жалобами обращаться напрямую к пользователю. Файлы для обмена на трекере предоставлены пользователями сайта, и администрация не несёт ответственности за их содержание. Просьба не заливать файлы, защищенные авторскими правами, а также файлы нелегального содержания!


    _________________

    ░▒▓█▀▄▀▄▀▄█▓▒░
    [Профиль] [ЛС]
    Показать сообщения:    
    Ответить на тему

    Текущее время: Сегодня, в 03:18

    Часовой пояс: GMT + 2



    Вы не можете начинать темы
    Вы не можете отвечать на сообщения
    Вы не можете редактировать свои сообщения
    Вы не можете удалять свои сообщения
    Вы не можете голосовать в опросах
    Вы не можете прикреплять файлы к сообщениям
    Вы не можете скачивать файлы