BitTorrentTracker PerecTracker.org
BitTorrentTracker PerecTracker.org
    
Регистрация  ·  Вход
 
 · 
Забыли пароль?

  • Рыцари чёрного озера (Энвер Аблуч) [1983, драма, историко-революционный, VHSRip]

    Ответить на тему
     
    Автор Сообщение

    Light

    Создавать темы 18-Апр-2015 23:48

           

    [Цитировать]

    Рыцари чёрного озера
    Жанр: драма, историко-революционный
    Год выпуска: 1983
    Продолжительность: 01:05:54
    Режиссёр: Энвер Аблуч
    В ролях: Натиг Абдуллаев, Камран Ахмедов, Хашим Гадоев, Гасан Аблуч, Гаджимурад Ягизаров, Борис Гусаков, Камран Шахмаярданов, Вугар Касимов, Камран Джалалов, Ниджат Керимов, Гюнай Рагимова, Земфира Садыхова, Али Самедов, Гаджи Исмайлов, Рафик Алиев, Рамиз Мяликов, Валиахд Велиев, Мухтар Авшаров, Мухтар Маниев, Самандар Рзаев
    Описание: Действие происходит в рабочем поселке нефтяников в 1905 году. Герои фильма — дети и подростки — вместе со взрослыми участвуют в революционной борьбе и первых забастовках рабочих-нефтяников.
    Доп. информация: По повести С.Велиева «Кулик». Приз ЦК ВЛКСМ на ВКФ в Минске (1985).
    Семпл:https://www.sendspace.com/file/bc46a5
    Качество видео: VHSRip
    Формат видео: AVI
    Видео: 640x352 (1.82:1), 25 fps, XviD build 50, 1791 kbps avg, 0.32 bit/pixel
    Аудио: 44.100 kHz, MPEG Layer 3, 2 ch, 118.31 kbps avg

    Скриншоты

    MediaInfo

    Общее
    Полное имя : E:\Рыцари чёрного озера.1984_.avi
    Формат : AVI
    Формат/Информация : Audio Video Interleave
    Размер файла : 906 Мбайт
    Продолжительность : 1 ч. 5 м.
    Режим общего битрейта : Переменный
    Общий поток : 1922 Кбит/сек
    Программа кодирования : MEncoder Sherpya-SVN-r32492-4.2.5
    Библиотека кодирования : MPlayer
    Видео
    Идентификатор : 0
    Формат : MPEG-4 Visual
    Профиль формата : Simple@L3
    Параметр BVOP формата : Нет
    Параметр QPel формата : Нет
    Параметр GMC формата : Без точки перехода
    Параметр матрицы формата : Default (H.263)
    Идентификатор кодека : XVID
    Идентификатор кодека/Подсказка : XviD
    Продолжительность : 1 ч. 5 м.
    Битрейт : 1791 Кбит/сек
    Ширина : 640 пикселей
    Высота : 352 пикселя
    Соотношение сторон : 16:9
    Частота кадров : 25,000 кадров/сек
    Цветовое пространство : YUV
    Субдискретизация насыщенности : 4:2:0
    Битовая глубина : 8 бит
    Тип развёртки : Прогрессивная
    Метод сжатия : С потерями
    Бит/(Пиксели*Кадры) : 0.318
    Размер потока : 844 Мбайт (93%)
    Библиотека кодирования : XviD 1.2.1 (UTC 2008-12-04)
    Аудио
    Идентификатор : 1
    Формат : MPEG Audio
    Версия формата : Version 1
    Профиль формата : Layer 3
    Режим : Joint stereo
    Расширение режима : MS Stereo
    Идентификатор кодека : 55
    Идентификатор кодека/Подсказка : MP3
    Продолжительность : 1 ч. 5 м.
    Вид битрейта : Переменный
    Битрейт : 118 Кбит/сек
    Каналы : 2 канала
    Частота : 44,1 КГц
    Метод сжатия : С потерями
    Размер потока : 55,8 Мбайт (6%)
    Выравнивание : Соединение по промежуткам
    Продолжительность промежутка : 26 мс. (0,65 видеокадр)
    Время предзагрузки промежутка : 419 мс.
    Скачать .torrent

    Скачать торрент-файл бесплатно и на максимальной скорости!

    Как скачивать? · Что такое торрент? · Рейтинг и ограничения

    !ВНИМАНИЕ!
    Сайт не распространяет и не хранит электронные версии произведений, а занимается лишь лишь предоставлением доступа к создаваемому пользователями каталогу ссылок на торрент-файлы, которые содержат только списки хеш-сумм, убедительная просьба с жалобами обращаться напрямую к пользователю. Файлы для обмена на трекере предоставлены пользователями сайта, и администрация не несёт ответственности за их содержание. Просьба не заливать файлы, защищенные авторскими правами, а также файлы нелегального содержания!


    _________________
    [Профиль] [ЛС]
    Показать сообщения:    
    Ответить на тему

    Текущее время: Сегодня, в 08:12

    Часовой пояс: GMT + 2



    Вы не можете начинать темы
    Вы не можете отвечать на сообщения
    Вы не можете редактировать свои сообщения
    Вы не можете удалять свои сообщения
    Вы не можете голосовать в опросах
    Вы не можете прикреплять файлы к сообщениям
    Вы не можете скачивать файлы