BitTorrentTracker PerecTracker.org
BitTorrentTracker PerecTracker.org
    
Регистрация  ·  Вход
 
 · 
Забыли пароль?

  • Планета динозавров / Planet Dinosaur (Andrew Cohen, Nigel Paterson) [2011 г., документальный, HDTVRip, 720p] (6 серий из 6) AVO В.Курдов

    Ответить на тему
     
    Автор Сообщение

    -sasha2006

    Создавать темы 28-Мар-2013 21:12

           

    [Цитировать]

    Планета динозавров / Planet Dinosaur-Год выпуска: 2011
    Страна: Великобритания
    Жанр: документальный
    Продолжительность: 00:29:00 серия
    Перевод: Авторский одноголосый AVO В.Курдов
    Русское название в видеоряде: Дмитрий Чистяков
    Русские субтитры: есть
    Режиссер: Andrew Cohen, Nigel Paterson-Сценарий: Найджел Патерсон, Том Брасс
    Продюсер: Сара Кропли
    Композитор: Илан Эшкери
    Монтаж: Beverly Maguire
    Премьера (мир): 14 сентября 2011
    Релиз на DVD: 6 декабря 2012, «Союз-Видео»
    Релиз на Blu-Ray: 20 декабря 2012, «Союз-Видео»
    -Описание: Планета динозавров - это шестисерийный документальный телевизионный сериал производства BBC, рассказанный Джоном Хертом.
    Качество: HDTVRip
    Формат: MKV
    Видео кодек: x264
    Аудио кодек: AC3
    Видео: x264, 1280x720p, 25fps, ~4500Kbps
    Аудио: Russian AC3, 6Ch, 48kHz, 384Kbps
    Аудио: English AC3, 6Ch, 48kHz, 384Kbps
    Субтитры: Русские, английские

    Информация MediaInfo по сериям

    1. Затерянный мир / Lost World - 00:28:04

    ОбщееУникальный идентификатор : 173288027526062940801658144587302077231 (0x825E0F64217AAA0D823B0D268260832F)Формат : MatroskaВерсия формата : Version 2Размер файла : 1,13 ГбайтПродолжительность : 28 м.Общий поток : 5771 Кбит/секДата кодирования : UTC 2011-10-08 20:24:36Программа кодирования : mkvmerge v3.0.0 ('Hang up your Hang-Ups') built on Dec 12 2009 15:20:35Библиотека кодирования : libebml v0.7.9 + libmatroska v0.8.1
    ВидеоИдентификатор : 1Формат : AVCФормат/Информация : Advanced Video CodecПрофиль формата : High@L4.1Параметр CABAC формата : ДаПараметр ReFrames формата : 4 кадраИдентификатор кодека : V_MPEG4/ISO/AVCПродолжительность : 28 м.Битрейт : 5000 Кбит/секШирина : 1280 пикс.Высота : 720 пикс.Соотношение сторон : 16:9Частота кадров : 25,000 кадр/секЦветовое пространство : YUVПодвыборка цветности : 4:2:0Битовая глубина : 8 битТип развёртки : ПрогрессивнаяБит/(Пиксели*Кадры) : 0.217Размер потока : 981 Мбайт (85%)Заголовок : Planet Dinosaur. Episode 1. Lost WorldБиблиотека кодирования : x264 core 116 r2074 2641b9eНастройки программы : cabac=1 / ref=5 / deblock=1:-3:-3 / analyse=0x3:0 / me=tesa / subme=11 / psy=1 / psy_rd=1.00:0.00 / mixed_ref=1 / me_range=16 / chroma_me=1 / trellis=2 / 8x8dct=1 / cqm=0 / deadzone=21,11 / fast_pskip=0 / chroma_qp_offset=-2 / threads=3 / sliced_threads=0 / nr=0 / decimate=1 / interlaced=0 / bluray_compat=0 / constrained_intra=0 / bframes=10 / b_pyramid=1 / b_adapt=2 / b_bias=0 / direct=3 / weightb=1 / open_gop=1 / weightp=2 / keyint=250 / keyint_min=25 / scenecut=40 / intra_refresh=0 / rc_lookahead=40 / rc=2pass / mbtree=1 / bitrate=5000 / ratetol=1.0 / qcomp=0.60 / qpmin=10 / qpmax=51 / qpstep=4 / cplxblur=20.0 / qblur=0.5 / vbv_maxrate=50000 / vbv_bufsize=50000 / nal_hrd=none / ip_ratio=1.40 / aq=1:0.80Язык : Russian
    Аудио #1Идентификатор : 2Формат : AC-3Формат/Информация : Audio Coding 3Расширение режима : CM (complete main)Идентификатор кодека : A_AC3Продолжительность : 28 м.Вид битрейта : ПостоянныйБитрейт : 384 Кбит/секКаналы : 6 каналовРасположение каналов : Front: L C R, Side: L R, LFEЧастота : 48,0 КГцБитовая глубина : 16 битМетод сжатия : С потерямиРазмер потока : 77,1 Мбайт (7%)Заголовок : RussianЯзык : Russian
    Аудио #2Идентификатор : 3Формат : AC-3Формат/Информация : Audio Coding 3Расширение режима : CM (complete main)Идентификатор кодека : A_AC3Продолжительность : 28 м.Вид битрейта : ПостоянныйБитрейт : 384 Кбит/секКаналы : 6 каналовРасположение каналов : Front: L C R, Side: L R, LFEЧастота : 48,0 КГцБитовая глубина : 16 битМетод сжатия : С потерямиРазмер потока : 77,1 Мбайт (7%)Заголовок : EnglishЯзык : English
    Текст #1Идентификатор : 4Формат : UTF-8Идентификатор кодека : S_TEXT/UTF8Заголовок : RussianЯзык : Russian
    Текст #2Идентификатор : 5Формат : UTF-8Идентификатор кодека : S_TEXT/UTF8Заголовок : EnglishЯзык : English

    2. Пернатые драконы / Feathered Dragons - 00:29:19

    ОбщееУникальный идентификатор : 254239739454759001611698450626009950893 (0xBF44CAF026A5B59081CABDABB9C4EAAD)Формат : MatroskaВерсия формата : Version 2Размер файла : 958 МбайтПродолжительность : 29 м.Общий поток : 4570 Кбит/секДата кодирования : UTC 2011-11-05 19:28:22Программа кодирования : mkvmerge v3.0.0 ('Hang up your Hang-Ups') built on Dec 12 2009 15:20:35Библиотека кодирования : libebml v0.7.9 + libmatroska v0.8.1
    ВидеоИдентификатор : 1Формат : AVCФормат/Информация : Advanced Video CodecПрофиль формата : High@L4.1Параметр CABAC формата : ДаПараметр ReFrames формата : 4 кадраИдентификатор кодека : V_MPEG4/ISO/AVCПродолжительность : 29 м.Битрейт : 3800 Кбит/секШирина : 1280 пикс.Высота : 720 пикс.Соотношение сторон : 16:9Частота кадров : 25,000 кадр/секЦветовое пространство : YUVПодвыборка цветности : 4:2:0Битовая глубина : 8 битТип развёртки : ПрогрессивнаяБит/(Пиксели*Кадры) : 0.165Размер потока : 778 Мбайт (81%)Заголовок : Planet Dinosaur. Episode 2. Feathered DragonsБиблиотека кодирования : x264 core 116 r2074 2641b9eНастройки программы : cabac=1 / ref=5 / deblock=1:-2:-2 / analyse=0x3:0 / me=tesa / subme=11 / psy=1 / psy_rd=1.00:0.00 / mixed_ref=1 / me_range=16 / chroma_me=1 / trellis=2 / 8x8dct=1 / cqm=0 / deadzone=21,11 / fast_pskip=0 / chroma_qp_offset=-2 / threads=3 / sliced_threads=0 / nr=0 / decimate=1 / interlaced=0 / bluray_compat=0 / constrained_intra=0 / bframes=6 / b_pyramid=1 / b_adapt=2 / b_bias=0 / direct=3 / weightb=1 / open_gop=1 / weightp=2 / keyint=250 / keyint_min=25 / scenecut=40 / intra_refresh=0 / rc_lookahead=40 / rc=2pass / mbtree=1 / bitrate=3800 / ratetol=1.0 / qcomp=0.60 / qpmin=10 / qpmax=51 / qpstep=4 / cplxblur=20.0 / qblur=0.5 / vbv_maxrate=50000 / vbv_bufsize=50000 / nal_hrd=none / ip_ratio=1.40 / aq=1:0.80Язык : Russian
    Аудио #1Идентификатор : 2Формат : AC-3Формат/Информация : Audio Coding 3Расширение режима : CM (complete main)Идентификатор кодека : A_AC3Продолжительность : 29 м.Вид битрейта : ПостоянныйБитрейт : 384 Кбит/секКаналы : 6 каналовРасположение каналов : Front: L C R, Side: L R, LFEЧастота : 48,0 КГцБитовая глубина : 16 битМетод сжатия : С потерямиРазмер потока : 80,5 Мбайт (8%)Заголовок : RussianЯзык : Russian
    Аудио #2Идентификатор : 3Формат : AC-3Формат/Информация : Audio Coding 3Расширение режима : CM (complete main)Идентификатор кодека : A_AC3Продолжительность : 29 м.Вид битрейта : ПостоянныйБитрейт : 384 Кбит/секКаналы : 6 каналовРасположение каналов : Front: L C R, Side: L R, LFEЧастота : 48,0 КГцБитовая глубина : 16 битМетод сжатия : С потерямиРазмер потока : 80,5 Мбайт (8%)Заголовок : EnglishЯзык : English
    Текст #1Идентификатор : 4Формат : UTF-8Идентификатор кодека : S_TEXT/UTF8Заголовок : RussainЯзык : Russian
    Текст #2Идентификатор : 5Формат : UTF-8Идентификатор кодека : S_TEXT/UTF8Заголовок : EnglishЯзык : English

    3. Последние убийцы / Last Killers - 00:29:19

    ОбщееУникальный идентификатор : 233619453160868837228423531141142299518 (0xAFC17854C376D79B822B714E4D4A437E)Формат : MatroskaВерсия формата : Version 2Размер файла : 895 МбайтПродолжительность : 29 м.Общий поток : 4270 Кбит/секДата кодирования : UTC 2012-02-05 17:55:14Программа кодирования : mkvmerge v3.0.0 ('Hang up your Hang-Ups') built on Dec 12 2009 15:20:35Библиотека кодирования : libebml v0.7.9 + libmatroska v0.8.1
    ВидеоИдентификатор : 1Формат : AVCФормат/Информация : Advanced Video CodecПрофиль формата : High@L4.1Параметр CABAC формата : ДаПараметр ReFrames формата : 4 кадраИдентификатор кодека : V_MPEG4/ISO/AVCПродолжительность : 29 м.Битрейт : 3500 Кбит/секШирина : 1280 пикселейВысота : 720 пикселейСоотношение сторон : 16:9Частота кадров : 25,000 кадров/секЦветовое пространство : YUVСубдискретизация насыщ. : 4:2:0Битовая глубина : 8 битТип развёртки : ПрогрессивнаяБит/(Пиксели*Кадры) : 0.152Размер потока : 717 Мбайт (80%)Заголовок : Planet Dinosaur. Episode 3. Last KillersБиблиотека кодирования : x264 core 116 r2074 2641b9eНастройки программы : cabac=1 / ref=5 / deblock=1:-2:-2 / analyse=0x3:0 / me=tesa / subme=11 / psy=1 / psy_rd=1.00:0.00 / mixed_ref=1 / me_range=16 / chroma_me=1 / trellis=2 / 8x8dct=1 / cqm=0 / deadzone=21,11 / fast_pskip=0 / chroma_qp_offset=-2 / threads=3 / sliced_threads=0 / nr=0 / decimate=1 / interlaced=0 / bluray_compat=0 / constrained_intra=0 / bframes=7 / b_pyramid=1 / b_adapt=2 / b_bias=0 / direct=3 / weightb=1 / open_gop=1 / weightp=2 / keyint=250 / keyint_min=25 / scenecut=40 / intra_refresh=0 / rc_lookahead=40 / rc=2pass / mbtree=1 / bitrate=3500 / ratetol=1.0 / qcomp=0.60 / qpmin=10 / qpmax=50 / qpstep=4 / cplxblur=20.0 / qblur=0.5 / vbv_maxrate=50000 / vbv_bufsize=50000 / nal_hrd=none / ip_ratio=1.40 / aq=1:0.80Язык : RussianDefault : НетForced : Нет
    Аудио #1Идентификатор : 2Формат : AC-3Формат/Информация : Audio Coding 3Расширение режима : CM (complete main)Идентификатор кодека : A_AC3Продолжительность : 29 м.Вид битрейта : ПостоянныйБитрейт : 384 Кбит/секКаналы : 6 каналовРасположение каналов : Front: L C R, Side: L R, LFEЧастота : 48,0 КГцБитовая глубина : 16 битМетод сжатия : С потерямиРазмер потока : 80,5 Мбайт (9%)Заголовок : RussianЯзык : RussianDefault : ДаForced : Нет
    Аудио #2Идентификатор : 3Формат : AC-3Формат/Информация : Audio Coding 3Расширение режима : CM (complete main)Идентификатор кодека : A_AC3Продолжительность : 29 м.Вид битрейта : ПостоянныйБитрейт : 384 Кбит/секКаналы : 6 каналовРасположение каналов : Front: L C R, Side: L R, LFEЧастота : 48,0 КГцБитовая глубина : 16 битМетод сжатия : С потерямиРазмер потока : 80,5 Мбайт (9%)Заголовок : EnglishЯзык : EnglishDefault : НетForced : Нет
    Текст #1Идентификатор : 4Формат : UTF-8Идентификатор кодека : S_TEXT/UTF8Заголовок : RussianЯзык : RussianDefault : НетForced : Нет
    Текст #2Идентификатор : 5Формат : UTF-8Идентификатор кодека : S_TEXT/UTF8Заголовок : EnglishЯзык : EnglishDefault : НетForced : Нет

    4. Борьба за жизнь / Fight for Life - 00:28:25

    ОбщееУникальный идентификатор : 232936547961654924682098502319724579295 (0xAF3DF281586D6E3EA14A2E6CF0A449DF)Формат : MatroskaВерсия формата : Version 2Размер файла : 828 МбайтПродолжительность : 28 м.Общий поток : 4071 Кбит/секДата кодирования : UTC 2012-03-15 15:31:07Программа кодирования : mkvmerge v3.0.0 ('Hang up your Hang-Ups') built on Dec 12 2009 15:20:35Библиотека кодирования : libebml v0.7.9 + libmatroska v0.8.1
    ВидеоИдентификатор : 1Формат : AVCФормат/Информация : Advanced Video CodecПрофиль формата : High@L4.1Параметр CABAC формата : ДаПараметр ReFrames формата : 4 кадраИдентификатор кодека : V_MPEG4/ISO/AVCПродолжительность : 28 м.Битрейт : 3300 Кбит/секШирина : 1280 пикселейВысота : 720 пикселейСоотношение сторон : 16:9Частота кадров : 25,000 кадров/секЦветовое пространство : YUVСубдискретизация насыщен. : 4:2:0Битовая глубина : 8 битТип развёртки : ПрогрессивнаяБит/(Пиксели*Кадры) : 0.143Размер потока : 655 Мбайт (79%)Заголовок : Planet Dinosaur. Episode 4. Fight for LifeБиблиотека кодирования : x264 core 120 r2164 da19765Настройки программы : cabac=1 / ref=5 / deblock=1:-3:-3 / analyse=0x3:0 / me=tesa / subme=11 / psy=1 / psy_rd=1.00:0.00 / mixed_ref=1 / me_range=16 / chroma_me=1 / trellis=2 / 8x8dct=1 / cqm=0 / deadzone=21,11 / fast_pskip=0 / chroma_qp_offset=-2 / threads=3 / sliced_threads=0 / nr=0 / decimate=1 / interlaced=0 / bluray_compat=0 / constrained_intra=0 / bframes=7 / b_pyramid=1 / b_adapt=2 / b_bias=0 / direct=3 / weightb=1 / open_gop=1 / weightp=2 / keyint=250 / keyint_min=25 / scenecut=40 / intra_refresh=0 / rc_lookahead=40 / rc=2pass / mbtree=1 / bitrate=3300 / ratetol=1.0 / qcomp=0.60 / qpmin=10 / qpmax=50 / qpstep=4 / cplxblur=20.0 / qblur=0.5 / vbv_maxrate=50000 / vbv_bufsize=50000 / nal_hrd=none / ip_ratio=1.40 / aq=1:0.80Язык : RussianDefault : НетForced : Нет
    Аудио #1Идентификатор : 2Формат : AC-3Формат/Информация : Audio Coding 3Расширение режима : CM (complete main)Идентификатор кодека : A_AC3Продолжительность : 28 м.Вид битрейта : ПостоянныйБитрейт : 384 Кбит/секКаналы : 6 каналовРасположение каналов : Front: L C R, Side: L R, LFEЧастота : 48,0 КГцБитовая глубина : 16 битМетод сжатия : С потерямиРазмер потока : 78,1 Мбайт (9%)Заголовок : RussianЯзык : RussianDefault : ДаForced : Нет
    Аудио #2Идентификатор : 3Формат : AC-3Формат/Информация : Audio Coding 3Расширение режима : CM (complete main)Идентификатор кодека : A_AC3Продолжительность : 28 м.Вид битрейта : ПостоянныйБитрейт : 384 Кбит/секКаналы : 6 каналовРасположение каналов : Front: L C R, Side: L R, LFEЧастота : 48,0 КГцБитовая глубина : 16 битМетод сжатия : С потерямиРазмер потока : 78,1 Мбайт (9%)Заголовок : EnglishЯзык : EnglishDefault : НетForced : Нет
    Текст #1Идентификатор : 4Формат : UTF-8Идентификатор кодека : S_TEXT/UTF8Заголовок : RussianЯзык : RussianDefault : НетForced : Нет
    Текст #2Идентификатор : 5Формат : UTF-8Идентификатор кодека : S_TEXT/UTF8Заголовок : EnglishЯзык : EnglishDefault : НетForced : Нет

    5. Новые гиганты / New Giants - 00:29:10

    ОбщееУникальный идентификатор : 192032525547387897787748666319401567346 (0x90781E7EF68941E4BEAFBCAD0946C472)Формат : MatroskaВерсия формата : Version 2Размер файла : 995 МбайтПродолжительность : 29 м.Общий поток : 4767 Кбит/секДата кодирования : UTC 2012-03-15 15:38:50Программа кодирования : mkvmerge v3.0.0 ('Hang up your Hang-Ups') built on Dec 12 2009 15:20:35Библиотека кодирования : libebml v0.7.9 + libmatroska v0.8.1
    ВидеоИдентификатор : 1Формат : AVCФормат/Информация : Advanced Video CodecПрофиль формата : High@L4.1Параметр CABAC формата : ДаПараметр ReFrames формата : 4 кадраИдентификатор кодека : V_MPEG4/ISO/AVCПродолжительность : 29 м.Битрейт : 4000 Кбит/секШирина : 1280 пикселейВысота : 720 пикселейСоотношение сторон : 16:9Частота кадров : 25,000 кадров/секЦветовое пространство : YUVСубдискретизация насыщен. : 4:2:0Битовая глубина : 8 битТип развёртки : ПрогрессивнаяБит/(Пиксели*Кадры) : 0.174Размер потока : 815 Мбайт (82%)Заголовок : Planet Dinosaur. Episode 5. New GiantsБиблиотека кодирования : x264 core 120 r2164 da19765Настройки программы : cabac=1 / ref=5 / deblock=1:-3:-3 / analyse=0x3:0 / me=tesa / subme=11 / psy=1 / psy_rd=1.00:0.00 / mixed_ref=1 / me_range=16 / chroma_me=1 / trellis=2 / 8x8dct=1 / cqm=0 / deadzone=21,11 / fast_pskip=0 / chroma_qp_offset=-2 / threads=3 / sliced_threads=0 / nr=0 / decimate=1 / interlaced=0 / bluray_compat=0 / constrained_intra=0 / bframes=8 / b_pyramid=1 / b_adapt=2 / b_bias=0 / direct=3 / weightb=1 / open_gop=1 / weightp=2 / keyint=250 / keyint_min=25 / scenecut=40 / intra_refresh=0 / rc_lookahead=40 / rc=2pass / mbtree=1 / bitrate=4000 / ratetol=1.0 / qcomp=0.60 / qpmin=10 / qpmax=50 / qpstep=4 / cplxblur=20.0 / qblur=0.5 / vbv_maxrate=50000 / vbv_bufsize=50000 / nal_hrd=none / ip_ratio=1.40 / aq=1:0.80Язык : RussianDefault : НетForced : Нет
    Аудио #1Идентификатор : 2Формат : AC-3Формат/Информация : Audio Coding 3Расширение режима : CM (complete main)Идентификатор кодека : A_AC3Продолжительность : 29 м.Вид битрейта : ПостоянныйБитрейт : 384 Кбит/секКаналы : 6 каналовРасположение каналов : Front: L C R, Side: L R, LFEЧастота : 48,0 КГцБитовая глубина : 16 битМетод сжатия : С потерямиРазмер потока : 80,1 Мбайт (8%)Заголовок : RussianЯзык : RussianDefault : ДаForced : Нет
    Аудио #2Идентификатор : 3Формат : AC-3Формат/Информация : Audio Coding 3Расширение режима : CM (complete main)Идентификатор кодека : A_AC3Продолжительность : 29 м.Вид битрейта : ПостоянныйБитрейт : 384 Кбит/секКаналы : 6 каналовРасположение каналов : Front: L C R, Side: L R, LFEЧастота : 48,0 КГцБитовая глубина : 16 битМетод сжатия : С потерямиРазмер потока : 80,1 Мбайт (8%)Заголовок : EnglishЯзык : EnglishDefault : НетForced : Нет
    Текст #1Идентификатор : 4Формат : UTF-8Идентификатор кодека : S_TEXT/UTF8Заголовок : RussianЯзык : RussianDefault : НетForced : Нет
    Текст #2Идентификатор : 5Формат : UTF-8Идентификатор кодека : S_TEXT/UTF8Заголовок : EnglishЯзык : EnglishDefault : НетForced : Нет

    6. Мастера выживания / Great Survivors - 00:28:40

    GeneralUnique ID : 200033466699426791630577993270384348706 (0x967D0B59D711843BAA783D3FDE4B4E22)Format : MatroskaFormat version : Version 2File size : 979 MiBDuration : 28mn 40sOverall bit rate : 4 771 KbpsEncoded date : UTC 2012-05-12 19:51:13Writing application : mkvmerge v5.2.1 ('A Far Off Place') built on Jan 2 2012 23:21:10Writing library : libebml v1.2.3 + libmatroska v1.3.0
    VideoID : 1Format : AVCFormat/Info : Advanced Video CodecFormat profile : High@L4.1Format settings, CABAC : YesFormat settings, ReFrames : 4 framesCodec ID : V_MPEG4/ISO/AVCDuration : 28mn 40sBit rate : 4 000 KbpsWidth : 1 280 pixelsHeight : 720 pixelsDisplay aspect ratio : 16:9Frame rate : 25.000 fpsColor space : YUVChroma subsampling : 4:2:0Bit depth : 8 bitsScan type : ProgressiveBits/(Pixel*Frame) : 0.174Stream size : 802 MiB (82%)Title : Planet Dinosaur. Episode 6. Great SurvivorsWriting library : x264 core 120 r2164 da19765Encoding settings : cabac=1 / ref=5 / deblock=1:-2:-2 / analyse=0x3:0 / me=tesa / subme=11 / psy=1 / psy_rd=1.00:0.00 / mixed_ref=1 / me_range=16 / chroma_me=1 / trellis=2 / 8x8dct=1 / cqm=0 / deadzone=21,11 / fast_pskip=0 / chroma_qp_offset=-2 / threads=6 / sliced_threads=0 / nr=0 / decimate=1 / interlaced=0 / bluray_compat=0 / constrained_intra=0 / bframes=6 / b_pyramid=1 / b_adapt=2 / b_bias=0 / direct=3 / weightb=1 / open_gop=1 / weightp=2 / keyint=250 / keyint_min=25 / scenecut=40 / intra_refresh=0 / rc_lookahead=40 / rc=2pass / mbtree=1 / bitrate=4000 / ratetol=1.0 / qcomp=0.60 / qpmin=10 / qpmax=50 / qpstep=4 / cplxblur=20.0 / qblur=0.5 / vbv_maxrate=50000 / vbv_bufsize=50000 / nal_hrd=none / ip_ratio=1.40 / aq=1:0.80Language : RussianDefault : YesForced : No
    Audio #1ID : 2Format : AC-3Format/Info : Audio Coding 3Mode extension : CM (complete main)Format settings, Endianness : BigCodec ID : A_AC3Duration : 28mn 40sBit rate mode : ConstantBit rate : 384 KbpsChannel(s) : 6 channelsChannel positions : Front: L C R, Side: L R, LFESampling rate : 48.0 KHzBit depth : 16 bitsCompression mode : LossyStream size : 78.8 MiB (8%)Title : RussianLanguage : RussianDefault : YesForced : No
    Audio #2ID : 3Format : AC-3Format/Info : Audio Coding 3Mode extension : CM (complete main)Format settings, Endianness : BigCodec ID : A_AC3Duration : 28mn 40sBit rate mode : ConstantBit rate : 384 KbpsChannel(s) : 6 channelsChannel positions : Front: L C R, Side: L R, LFESampling rate : 48.0 KHzBit depth : 16 bitsCompression mode : LossyStream size : 78.8 MiB (8%)Title : EnglishLanguage : EnglishDefault : NoForced : No
    Text #1ID : 4Format : UTF-8Codec ID : S_TEXT/UTF8Codec ID/Info : UTF-8 Plain TextTitle : RussianLanguage : RussianDefault : NoForced : No
    Text #2ID : 5Format : UTF-8Codec ID : S_TEXT/UTF8Codec ID/Info : UTF-8 Plain TextTitle : EnglishLanguage : EnglishDefault : NoForced : No

    Скриншоты

    Скачать .torrent

    Скачать торрент-файл бесплатно и на максимальной скорости!

    Как скачивать? · Что такое торрент? · Рейтинг и ограничения

    !ВНИМАНИЕ!
    Сайт не распространяет и не хранит электронные версии произведений, а занимается лишь лишь предоставлением доступа к создаваемому пользователями каталогу ссылок на торрент-файлы, которые содержат только списки хеш-сумм, убедительная просьба с жалобами обращаться напрямую к пользователю. Файлы для обмена на трекере предоставлены пользователями сайта, и администрация не несёт ответственности за их содержание. Просьба не заливать файлы, защищенные авторскими правами, а также файлы нелегального содержания!


    _________________

    ░▒▓█▀▄▀▄▀▄█▓▒░
    [Профиль] [ЛС]
    Показать сообщения:    
    Ответить на тему

    Текущее время: Сегодня, в 04:22

    Часовой пояс: GMT + 2



    Вы не можете начинать темы
    Вы не можете отвечать на сообщения
    Вы не можете редактировать свои сообщения
    Вы не можете удалять свои сообщения
    Вы не можете голосовать в опросах
    Вы не можете прикреплять файлы к сообщениям
    Вы не можете скачивать файлы