BitTorrentTracker PerecTracker.org
BitTorrentTracker PerecTracker.org
    
Регистрация  ·  Вход
 
 · 
Забыли пароль?

  • Превратности любви / Playing by Heart (Уиллард Кэрролл / Willard Carroll) [1998, Великобритания, США, Драма, мелодрама, комедия, BDRip] MVO (R5)

    Ответить на тему
     
    Автор Сообщение

    Skillters

    Создавать темы 18-Апр-2015 20:40

           

    [Цитировать]

    Превратности любви / Playing by Heart-Год выпуска: 1998
    Страна: Великобритания, США
    Жанр: драма, мелодрама, комедия
    Продолжительность: 02:00:46
    Перевод: Профессиональный (многоголосый закадровый) R5
    Cубтитры: нет-Режиссер:
    Уиллард Кэрролл / Willard Carroll-В ролях:
    Анджелина Джоли, Шон Коннери, Джина Роулэндс, Джиллиан Андерсон, Мэдлин Стоу, Райан Филипп, Деннис Куэйд, Кристиан Миллс, Келли Уэймайр, Эйприл Грэйс, Энтони Эдвардс, Эллен Бёрстин, Джей Мор, Тим Халлиган, Майкл Эмерсон, Джон Стюарт, Патришия Кларксон, Джон Патрик Уайт, Аманда Пит, Дэвид Фергюсон, Джоэль МакКрэри, Алек Мапа, Уорфи Мичам, Майкл Б. Сильвер, Хэл Лэндон мл., Марк Аллен Льюис, Рон Буссом, Дэниэл Чодос, Марк Льюис, Джим Абеле, Крис Коннер-Описание:
    Два клаббера, повстречавшиеся в ночном клубе. Пожилая пара, заново дающая друг другу обет. Антисоциальная женщина, принимающая приглашение на свидание от незнакомца. Парень, умирающий от СПИДа, и его мать, не желавшая принять сына из-за его гомосексуальности. Пара, у которой затягивается роман. И мужчина, бродящий по барам и рассказывающий там о своих несчастьях.
    Шесть совершенно непохожих друг на друга и не взаимосвязанных историй постепенно сплетутся воедино…- -Качество: BDRip (Исходник: Blu-ray)
    Формат: AVI
    Видео кодек: XviD
    Аудио кодек: AC3
    Видео: 688x352 (1.95:1), 24.000 fps, XviD build 73 ~1271 kbps avg, 0.22 bit/pixel
    Аудио: 48 kHz, AC3 Dolby Digital, 3/2 (L,C,R,l,r) + LFE ch, ~448.00 kbps avg

    Скриншоты

    MediaInfo

    General
    Complete name : D:\Prevratnosti_lubvi_1998_BDRip_by_Dalemake.avi
    Format : AVI
    Format/Info : Audio Video Interleave
    File size : 1.46 GiB
    Duration : 2h 0mn
    Overall bit rate : 1 729 Kbps
    Writing application : VirtualDubMod 1.5.10.3 | www.virtualdub-fr.org || (build 2550/release)
    Writing library : VirtualDubMod build 2550/release
    Video
    ID : 0
    Format : MPEG-4 Visual
    Format profile : Advanced Simple@L5
    Format settings, BVOP : 1
    Format settings, QPel : No
    Format settings, GMC : No warppoints
    Format settings, Matrix : Custom
    Codec ID : XVID
    Codec ID/Hint : XviD
    Duration : 2h 0mn
    Bit rate : 1 271 Kbps
    Width : 688 pixels
    Height : 352 pixels
    Display aspect ratio : 1.955
    Frame rate : 24.000 fps
    Color space : YUV
    Chroma subsampling : 4:2:0
    Bit depth : 8 bits
    Scan type : Progressive
    Compression mode : Lossy
    Bits/(Pixel*Frame) : 0.219
    Stream size : 1.07 GiB (74%)
    Writing library : XviD 73
    Audio
    ID : 1
    Format : AC-3
    Format/Info : Audio Coding 3
    Mode extension : CM (complete main)
    Format settings, Endianness : Big
    Codec ID : 2000
    Duration : 2h 0mn
    Bit rate mode : Constant
    Bit rate : 448 Kbps
    Channel(s) : 6 channels
    Channel positions : Front: L C R, Side: L R, LFE
    Sampling rate : 48.0 KHz
    Bit depth : 16 bits
    Compression mode : Lossy
    Stream size : 387 MiB (26%)
    Alignment : Split accross interleaves
    Interleave, duration : 42 ms (1.00 video frame)
    Interleave, preload duration : 500 ms
    Скачать .torrent

    Скачать торрент-файл бесплатно и на максимальной скорости!

    Как скачивать? · Что такое торрент? · Рейтинг и ограничения

    !ВНИМАНИЕ!
    Сайт не распространяет и не хранит электронные версии произведений, а занимается лишь лишь предоставлением доступа к создаваемому пользователями каталогу ссылок на торрент-файлы, которые содержат только списки хеш-сумм, убедительная просьба с жалобами обращаться напрямую к пользователю. Файлы для обмена на трекере предоставлены пользователями сайта, и администрация не несёт ответственности за их содержание. Просьба не заливать файлы, защищенные авторскими правами, а также файлы нелегального содержания!


    _________________
    [Профиль] [ЛС]
    Показать сообщения:    
    Ответить на тему

    Текущее время: Сегодня, в 00:08

    Часовой пояс: GMT + 2



    Вы не можете начинать темы
    Вы не можете отвечать на сообщения
    Вы не можете редактировать свои сообщения
    Вы не можете удалять свои сообщения
    Вы не можете голосовать в опросах
    Вы не можете прикреплять файлы к сообщениям
    Вы не можете скачивать файлы