BitTorrentTracker PerecTracker.org
BitTorrentTracker PerecTracker.org
    
Регистрация  ·  Вход
 
 · 
Забыли пароль?

  • Красное солнце / Soleil rouge / Red sun (Теренс Янг / Terence Young) [1971, Боевик, триллер, вестерн, BDRip] MVO (SomeWax) + MVO (DVD Магия)

    Ответить на тему
     
    Автор Сообщение

    Skillters

    Создавать темы 18-Апр-2015 20:24

           

    [Цитировать]

    Красное солнце / Soleil rouge / Red sun-Год выпуска: 1971
    Страна: Франция, Италия, Испания
    Жанр: боевик, триллер, вестерн
    Продолжительность: 01:54:29
    Перевод: Профессиональный (многоголосый закадровый) |SomeWax| + Профессиональный (многоголосый закадровый) |DVD Магия|
    Cубтитры: нет-Режиссер:
    Теренс Янг / Terence Young-В ролях:
    Чарльз Бронсон, Урсула Андрес, Тосиро Мифунэ, Ален Делон, Гвидо Лоллобриджида, Капюсин, Энтони Досон, Жорж Ликан, Тетсу Накамура, Бернабе Барта Барри, Люк Меренда, Хулио Пенья, Хироси Танака, Моника Рандалл, Хосе Хаспе, Рикардо Паласиос, Флоренсио Амарилла-Описание:
    70-е годы 19-го века. Ограблен поезд и вместе с золотом похищен самурайский меч, предназначенный в подарок президенту. Самурай отправляется на поиски меча вместе с одним из грабителей, у которого свои причины искать обидчика. Тот зажал его долю награбленного, а самого грабителя чуть не убил.- -Качество: BDRip (Исходник: Blu-ray)
    Формат: AVI
    Видео кодек: XviD
    Аудио кодек: AC3
    Видео: 704x384 (1.83:1), 23.976 fps, XviD build 73 ~1425 kbps avg, 0.22 bit/pixel
    Аудио #1: 48 kHz, AC3 Dolby Digital, 2/0 (L,R) ch, ~192.00 kbps avg (SomeWax)
    Аудио #2: 48 kHz, AC3 Dolby Digital, 2/0 (L,R) ch, ~192.00 kbps avg (DVD Магия)

    Скриншоты

    MediaInfo

    Общее
    Полное имя : H:\Krasnoe_solnce_1971_BDRip_by_Dalemake.avi
    Формат : AVI
    Формат/Информация : Audio Video Interleave
    Размер файла : 1,46 Гбайт
    Продолжительность : 1 ч. 54 м.
    Общий поток : 1824 Кбит/сек
    Программа кодирования : VirtualDubMod 1.5.10.3 | www.virtualdub-fr.org || (build 2550/release)
    Библиотека кодирования : VirtualDubMod build 2550/release
    Видео
    Идентификатор : 0
    Формат : MPEG-4 Visual
    Профиль формата : Advanced Simple@L5
    Параметр BVOP формата : 1
    Параметр QPel формата : Нет
    Параметр GMC формата : Без точки перехода
    Параметр матрицы формата : Выборочная
    Идентификатор кодека : XVID
    Идентификатор кодека/Подсказка : XviD
    Продолжительность : 1 ч. 54 м.
    Битрейт : 1426 Кбит/сек
    Ширина : 704 пикселя
    Высота : 384 пикселя
    Соотношение сторон : 16:9
    Частота кадров : 23,976 кадра/сек
    Цветовое пространство : YUV
    Субдискретизация насыщенности : 4:2:0
    Битовая глубина : 8 бит
    Тип развёртки : Прогрессивная
    Метод сжатия : С потерями
    Бит/(Пиксели*Кадры) : 0.220
    Размер потока : 1,14 Гбайт (78%)
    Библиотека кодирования : XviD 73
    Аудио #1
    Идентификатор : 1
    Формат : AC-3
    Формат/Информация : Audio Coding 3
    Профиль формата : Dolby Digital
    Расширение режима : CM (complete main)
    Идентификатор кодека : 2000
    Продолжительность : 1 ч. 54 м.
    Вид битрейта : Постоянный
    Битрейт : 192 Кбит/сек
    Каналы : 2 канала
    Расположение каналов : Front: L R
    Частота : 48,0 КГц
    Битовая глубина : 16 бит
    Метод сжатия : С потерями
    Размер потока : 157 Мбайт (11%)
    Выравнивание : Разделение по промежуткам
    Продолжительность промежутка : 42 мс. (1,00 видеокадр)
    Время предзагрузки промежутка : 500 мс.
    Аудио #2
    Идентификатор : 2
    Формат : AC-3
    Формат/Информация : Audio Coding 3
    Профиль формата : Dolby Digital
    Расширение режима : CM (complete main)
    Идентификатор кодека : 2000
    Продолжительность : 1 ч. 54 м.
    Вид битрейта : Постоянный
    Битрейт : 192 Кбит/сек
    Каналы : 2 канала
    Расположение каналов : Front: L R
    Частота : 48,0 КГц
    Битовая глубина : 16 бит
    Метод сжатия : С потерями
    Размер потока : 157 Мбайт (11%)
    Выравнивание : Разделение по промежуткам
    Продолжительность промежутка : 42 мс. (1,00 видеокадр)
    Время предзагрузки промежутка : 500 мс.
    Скачать .torrent

    Скачать торрент-файл бесплатно и на максимальной скорости!

    Как скачивать? · Что такое торрент? · Рейтинг и ограничения

    !ВНИМАНИЕ!
    Сайт не распространяет и не хранит электронные версии произведений, а занимается лишь лишь предоставлением доступа к создаваемому пользователями каталогу ссылок на торрент-файлы, которые содержат только списки хеш-сумм, убедительная просьба с жалобами обращаться напрямую к пользователю. Файлы для обмена на трекере предоставлены пользователями сайта, и администрация не несёт ответственности за их содержание. Просьба не заливать файлы, защищенные авторскими правами, а также файлы нелегального содержания!


    _________________
    [Профиль] [ЛС]
    Показать сообщения:    
    Ответить на тему

    Текущее время: Сегодня, в 12:03

    Часовой пояс: GMT + 2



    Вы не можете начинать темы
    Вы не можете отвечать на сообщения
    Вы не можете редактировать свои сообщения
    Вы не можете удалять свои сообщения
    Вы не можете голосовать в опросах
    Вы не можете прикреплять файлы к сообщениям
    Вы не можете скачивать файлы