BitTorrentTracker PerecTracker.org
BitTorrentTracker PerecTracker.org
    
Регистрация  ·  Вход
 
 · 
Забыли пароль?

  • Пристрели их / Shoot 'Em Up (Майкл Дэвис / Michael Davis) [2007, США, Боевик, триллер, комедия, криминал, BDRip] Dub

    Ответить на тему
     
    Автор Сообщение

    Skillters

    Создавать темы 18-Апр-2015 20:19

           

    [Цитировать]

    Пристрели их / Shoot 'Em Up
    -Год выпуска: 2007
    Выпущено: США
    Жанр: боевик, триллер, комедия, криминал
    Продолжительность: 01:26:32
    Перевод: Профессиональный (полное дублирование) R5
    Субтитры: нет-Режиссер:
    Майкл Дэвис / Michael Davis-В ролях:
    Клайв Оуэн, Пол Джаматти, Моника Беллуччи, Стивен МакХэтти, Грег Брайк, Дэниэл Пилон, Сидни Менде-Гибсон, Лукас Менде-Гибсон, Кейлин Йеллоулис, Рамона Прингл, Джулиан Ричингс, Тони Манч, Скотт МакКорд, Уайли М. Пикетт, Стивен Харт, Дэвид Ури, Майк Рэйд, Энди МакКензи, Лаура ДеКартере, Райан Финн-Описание:
    Изгой, живущий воспоминаниями о собственном трагическом прошлом, спасает от верной смерти грудного младенца, оказавшись впутанным в правительственный заговор. Вместе с проституткой, ублажающей фантазии клиентов о грудном вскармливании и берущей на себя заботу о малыше, герой отсчитывает последние деньки двух коррумпированных чиновников.- -Качество: BDRip (Исходник: Blu-ray/ 1080p/)
    Формат: AVI
    Видео кодек: XviD
    Аудио кодек: AC3
    Видео: 720x304 (2.37:1), 23.976 fps, XviD build 73 ~1952 kbps avg, 0.37 bit/pixel
    Аудио: 48 kHz, AC3 Dolby Digital, 3/2 (L,C,R,l,r) + LFE ch, ~448.00 kbps avg

    Скриншоты

    MediaInfo

    Общее
    Полное имя : H:\Pristreli_ih_2007_BDRip_by_Dalemake.avi
    Формат : AVI
    Формат/Информация : Audio Video Interleave
    Размер файла : 1,46 Гбайт
    Продолжительность : 1 ч. 26 м.
    Общий поток : 2410 Кбит/сек
    Программа кодирования : VirtualDubMod 1.5.10.3 | www.virtualdub-fr.org || (build 2550/release)
    Библиотека кодирования : VirtualDubMod build 2550/release
    Видео
    Идентификатор : 0
    Формат : MPEG-4 Visual
    Профиль формата : Advanced Simple@L5
    Параметр BVOP формата : 1
    Параметр QPel формата : Нет
    Параметр GMC формата : Без точки перехода
    Параметр матрицы формата : Выборочная
    Идентификатор кодека : XVID
    Идентификатор кодека/Подсказка : XviD
    Продолжительность : 1 ч. 26 м.
    Битрейт : 1953 Кбит/сек
    Ширина : 720 пикселей
    Высота : 304 пикселя
    Соотношение сторон : 2,35:1
    Частота кадров : 23,976 кадра/сек
    Цветовое пространство : YUV
    Субдискретизация насыщенности : 4:2:0
    Битовая глубина : 8 бит
    Тип развёртки : Прогрессивная
    Метод сжатия : С потерями
    Бит/(Пиксели*Кадры) : 0.372
    Размер потока : 1,18 Гбайт (81%)
    Библиотека кодирования : XviD 73
    Аудио
    Идентификатор : 1
    Формат : AC-3
    Формат/Информация : Audio Coding 3
    Расширение режима : CM (complete main)
    Идентификатор кодека : 2000
    Продолжительность : 1 ч. 26 м.
    Вид битрейта : Постоянный
    Битрейт : 448 Кбит/сек
    Каналы : 6 каналов
    Расположение каналов : Front: L C R, Side: L R, LFE
    Частота : 48,0 КГц
    Битовая глубина : 16 бит
    Метод сжатия : С потерями
    Размер потока : 277 Мбайт (19%)
    Выравнивание : Разделение по промежуткам
    Продолжительность промежутка : 42 мс. (1,00 видеокадр)
    Время предзагрузки промежутка : 500 мс.
    Скачать .torrent

    Скачать торрент-файл бесплатно и на максимальной скорости!

    Как скачивать? · Что такое торрент? · Рейтинг и ограничения

    !ВНИМАНИЕ!
    Сайт не распространяет и не хранит электронные версии произведений, а занимается лишь лишь предоставлением доступа к создаваемому пользователями каталогу ссылок на торрент-файлы, которые содержат только списки хеш-сумм, убедительная просьба с жалобами обращаться напрямую к пользователю. Файлы для обмена на трекере предоставлены пользователями сайта, и администрация не несёт ответственности за их содержание. Просьба не заливать файлы, защищенные авторскими правами, а также файлы нелегального содержания!


    _________________
    [Профиль] [ЛС]
    Показать сообщения:    
    Ответить на тему

    Текущее время: Сегодня, в 20:25

    Часовой пояс: GMT + 2



    Вы не можете начинать темы
    Вы не можете отвечать на сообщения
    Вы не можете редактировать свои сообщения
    Вы не можете удалять свои сообщения
    Вы не можете голосовать в опросах
    Вы не можете прикреплять файлы к сообщениям
    Вы не можете скачивать файлы