BitTorrentTracker PerecTracker.org
BitTorrentTracker PerecTracker.org
    
Регистрация  ·  Вход
 
 · 
Забыли пароль?

  • Это мгновение (Эмиль Лотяну) [1968, драма, VHSRip] Orig (Esp) + Sub (Rus)

    Ответить на тему
     
    Автор Сообщение

    Light

    Создавать темы 18-Апр-2015 19:36

           

    [Цитировать]

    Это мгновение
    Жанр: драма
    Год выпуска: 1968
    Продолжительность: 01:37:05
    Язык: испанский
    Перевод: субтитры (русские, неотключаемые)
    Режиссёр: Эмиль Лотяну
    В ролях: Мария Сагайдак, Михай Волонтир, Херардо Фернандес, Мирче Соцки-Войническу, Виктор Соцки-Войническу, Светлана Тома, Георге Димитриу, Хуан Руиз Гомес, Валентина Киричек, Василе Кику, Денис Никифоров, Михаил Бадикяну, Леонид Данчишин, Эрвин Кнаусмюллер, Леонид Пярн, Анатол Чокану, Вадим Вильский, Василе Паскару, Глеб Саинчук
    Описание: 1937 год. Романтик и бродяга, молдаванин Михай Адам отправляется в Испанию и становится добровольным участником народной борьбы с франкистами...
    Доп. информация: Производство - "Молдова-фильм". Премьера - 23 февраля 1970 (Москва).
    Семпл: https://www.sendspace.com/file/qih2ya
    Качество видео: VHSRip
    Формат видео: AVI
    Видео:624x336 (1.86:1), 25 fps, XviD build 50, 1807 kbps avg, 0.34 bit/pixel
    Аудио: 44.100 kHz, MPEG Layer 3, 2 ch,123.88 kbps avg

    Скриншоты

    MediaInfo

    Общее
    Полное имя : E:\Это мгновение (2)_xvid.avi
    Формат : AVI
    Формат/Информация : Audio Video Interleave
    Профиль формата : OpenDML
    Размер файла : 1,31 Гбайт
    Продолжительность : 1 ч. 37 м.
    Режим общего битрейта : Переменный
    Общий поток : 1938 Кбит/сек
    Программа кодирования : MEncoder Sherpya-SVN-r32492-4.2.5
    Библиотека кодирования : MPlayer
    Видео
    Идентификатор : 0
    Формат : MPEG-4 Visual
    Профиль формата : Simple@L3
    Параметр BVOP формата : Нет
    Параметр QPel формата : Нет
    Параметр GMC формата : Без точки перехода
    Параметр матрицы формата : Default (H.263)
    Идентификатор кодека : XVID
    Идентификатор кодека/Подсказка : XviD
    Продолжительность : 1 ч. 37 м.
    Битрейт : 1800 Кбит/сек
    Ширина : 624 пикселя
    Высота : 336 пикселей
    Соотношение сторон : 1,85:1
    Частота кадров : 25,000 кадров/сек
    Цветовое пространство : YUV
    Субдискретизация насыщенности : 4:2:0
    Битовая глубина : 8 бит
    Тип развёртки : Прогрессивная
    Метод сжатия : С потерями
    Бит/(Пиксели*Кадры) : 0.343
    Размер потока : 1,22 Гбайт (93%)
    Библиотека кодирования : XviD 1.2.1 (UTC 2008-12-04)
    Аудио
    Идентификатор : 1
    Формат : MPEG Audio
    Версия формата : Version 1
    Профиль формата : Layer 3
    Режим : Joint stereo
    Расширение режима : MS Stereo
    Идентификатор кодека : 55
    Идентификатор кодека/Подсказка : MP3
    Продолжительность : 1 ч. 37 м.
    Вид битрейта : Переменный
    Битрейт : 124 Кбит/сек
    Каналы : 2 канала
    Частота : 44,1 КГц
    Метод сжатия : С потерями
    Размер потока : 86,0 Мбайт (6%)
    Выравнивание : Соединение по промежуткам
    Продолжительность промежутка : 26 мс. (0,65 видеокадр)
    Время предзагрузки промежутка : 478 мс.
    Скачать .torrent

    Скачать торрент-файл бесплатно и на максимальной скорости!

    Как скачивать? · Что такое торрент? · Рейтинг и ограничения

    !ВНИМАНИЕ!
    Сайт не распространяет и не хранит электронные версии произведений, а занимается лишь лишь предоставлением доступа к создаваемому пользователями каталогу ссылок на торрент-файлы, которые содержат только списки хеш-сумм, убедительная просьба с жалобами обращаться напрямую к пользователю. Файлы для обмена на трекере предоставлены пользователями сайта, и администрация не несёт ответственности за их содержание. Просьба не заливать файлы, защищенные авторскими правами, а также файлы нелегального содержания!


    _________________
    [Профиль] [ЛС]
    Показать сообщения:    
    Ответить на тему

    Текущее время: Сегодня, в 22:49

    Часовой пояс: GMT + 2



    Вы не можете начинать темы
    Вы не можете отвечать на сообщения
    Вы не можете редактировать свои сообщения
    Вы не можете удалять свои сообщения
    Вы не можете голосовать в опросах
    Вы не можете прикреплять файлы к сообщениям
    Вы не можете скачивать файлы