Register  ·  Log in
Forgot password?

  • Дорога в Кара-Кийик (Усенжан Ибрагимов) [1975 г., мелодрама, TVRip]

    Reply to topic
    Author Message


    Post 18-Apr-2015 16:24



    Дорога в Кара-КийикГод выпуска: 1975.
    Жанр: мелодрама.
    Продолжительность: 01:23:16.
    Режиссер: Усенжан Ибрагимов.
    В ролях:
    Асанбек (Арсен) Умуралиев, Джамал (Жамал) Сейдакматова, Турсун Уралиев, Асанкул Куттубаев, Владимир Липпарт, Джапар Садыков, Ашир Чокубаев, К. Садыков, А. Садыкова.
    Действие фильма разворачивается вокруг главного героя Толена Мамытбекова, человека трудной, неудавшейся судьбы. Он детдомовец, бывший уголовник, пытающийся в свои сорок лет начать новую жизнь. В этом помогают ему друзья-геологи и простая сельская женщина Шакен. Толен и Шакен любят друг друга, но скрывают свои чувства до той поры, пока не же­нятся.
    Доп. информация:
    Страна: СССР .
    Киностудия: Киргизфильм.
    Автор сценария: Ифраим Ибрагимов.
    Оператор: Алексей Ким.
    Композитор: Эсенгул Джумабаев.
    Художник: Джолдожбек Касымалиев.


    Качество: TVRip
    Формат: AVI
    Видео: 720x544 (1.32:1), 25 fps, XviD MPEG-4 ~1114 kbps avg, 0.11 bit/pixel
    Аудио: 48 kHz, MPEG Layer 3, 2 ch, ~128.00 kbps avg

    Отчет MI

    Complete name : Doroga.v.Kara.Kiiik.1975.XviD.TVRip.fenixclub.avi
    Format : AVI
    Format/Info : Audio Video Interleave
    File size : 746 MiB
    Duration : 1h 23mn
    Overall bit rate : 1 253 Kbps
    Writing application : VirtualDubModRus (build 2542/release)
    Writing library : VirtualDub build 32842/release
    ID : 0
    Format : MPEG-4 Visual
    Format profile : Advanced Simple@L5
    Format settings, BVOP : 2
    Format settings, QPel : No
    Format settings, GMC : No warppoints
    Format settings, Matrix : Default (H.263)
    Muxing mode : Packed bitstream
    Codec ID : XVID
    Codec ID/Hint : XviD
    Duration : 1h 23mn
    Bit rate : 1 115 Kbps
    Width : 720 pixels
    Height : 544 pixels
    Display aspect ratio : 4:3
    Frame rate : 25.000 fps
    Color space : YUV
    Chroma subsampling : 4:2:0
    Bit depth : 8 bits
    Scan type : Progressive
    Compression mode : Lossy
    Bits/(Pixel*Frame) : 0.114
    Stream size : 664 MiB (89%)
    Writing library : XviD 73
    ID : 1
    Format : MPEG Audio
    Format version : Version 1
    Format profile : Layer 3
    Mode : Joint stereo
    Mode extension : MS Stereo
    Codec ID : 55
    Codec ID/Hint : MP3
    Duration : 1h 23mn
    Bit rate mode : Constant
    Bit rate : 128 Kbps
    Channel(s) : 2 channels
    Sampling rate : 48.0 KHz
    Compression mode : Lossy
    Stream size : 76.2 MiB (10%)
    Alignment : Split accross interleaves
    Interleave, duration : 40 ms (1.00 video frame)
    Interleave, preload duratio : 500 ms.

    Альтернативный хост

    Download .torrent

    Download free and at maximum speed!

    How to Download? · What is a torrent? · Ratings and Limitations

    The site does not extend and does not store electronic(digital) versions of products, and only gives access to a reference catalogue created by users on torrent-files which contain only lists of the hash-sums, the earnest entreaty, with complaints(abuse) to access directly to the user. Files for an exchange on tracker are given by users of a site, and the administration does not bear the responsibility for their maintenance. The request to not fill in the files protected by copyrights, and also files of the illegal maintenance!

    [Profile] [PM]
    Display posts from previous:    
    Reply to topic

    The time now is: Today 14:06

    All times are GMT + 3 Hours

    You cannot post new topics in this forum
    You cannot reply to topics in this forum
    You cannot edit your posts in this forum
    You cannot delete your posts in this forum
    You cannot vote in polls in this forum
    You cannot attach files in this forum
    You cannot download files in this forum