BitTorrentTracker PerecTracker.org
BitTorrentTracker PerecTracker.org
    
Регистрация  ·  Вход
 
 · 
Забыли пароль?

  • Родила меня мать счастливым... (Борис Дуров) [1980, драма, VHSRip]

    Ответить на тему
     
    Автор Сообщение

    Light

    Создавать темы 18-Апр-2015 02:48

           

    [Цитировать]

    Родила меня мать счастливым...
    Жанр: драма
    Год выпуска: 1980
    Продолжительность: 01:14:38
    Язык: русский
    Режиссёр: Борис Дуров
    В ролях: Николай Гэрля, Валериу Купча, Костас Сморигинас, Володя Чубарев, Андрей Попа, Сильвия Берова, Лев Перфилов, Тамара Тимофеева, Василе Тэбырцэ, Владимир Иовицэ, Илие Гуцу, Геннадий Четвериков, Георгий Гаврилов
    Описание: Действие фильма происходит в 1944 году в молдавском селе, только что освобожденном Советской Армией от фашистов. Молодой учитель создает школьную пионерскую организацию. Ему противодействует директор школы...
    Доп. информация: По мотивам повести Г.Маларчука «Кукушкин камень». Производство - "Молдова-фильм", творческое объединение «Арта». Премьера - 6 мая 1981 (ТВ, Москва).
    Семпл:https://www.sendspace.com/file/8zwtaa
    Качество видео: VHSRip
    Формат видео: AVI
    Видео: 640x480 (1.33:1), 25 fps, XviD build 50, 2006 kbps avg, 0.26 bit/pixel
    Аудио: 44.100 kHz, MPEG Layer 3, 2 ch, 122.98 kbps avg

    MediaInfo

    Общее
    Полное имя : E:\Родила меня мать счастливым.avi
    Формат : AVI
    Формат/Информация : Audio Video Interleave
    Профиль формата : OpenDML
    Размер файла : 1,11 Гбайт
    Продолжительность : 1 ч. 14 м.
    Режим общего битрейта : Переменный
    Общий поток : 2136 Кбит/сек
    Программа кодирования : MEncoder Sherpya-SVN-r32492-4.2.5
    Библиотека кодирования : MPlayer
    Видео
    Идентификатор : 0
    Формат : MPEG-4 Visual
    Профиль формата : Simple@L3
    Параметр BVOP формата : Нет
    Параметр QPel формата : Нет
    Параметр GMC формата : Без точки перехода
    Параметр матрицы формата : Default (H.263)
    Идентификатор кодека : XVID
    Идентификатор кодека/Подсказка : XviD
    Продолжительность : 1 ч. 14 м.
    Битрейт : 1997 Кбит/сек
    Ширина : 640 пикселей
    Высота : 480 пикселей
    Соотношение сторон : 4:3
    Частота кадров : 25,000 кадров/сек
    Цветовое пространство : YUV
    Субдискретизация насыщенности : 4:2:0
    Битовая глубина : 8 бит
    Тип развёртки : Прогрессивная
    Метод сжатия : С потерями
    Бит/(Пиксели*Кадры) : 0.260
    Размер потока : 1,04 Гбайт (93%)
    Библиотека кодирования : XviD 1.2.1 (UTC 2008-12-04)
    Аудио
    Идентификатор : 1
    Формат : MPEG Audio
    Версия формата : Version 1
    Профиль формата : Layer 3
    Режим : Joint stereo
    Идентификатор кодека : 55
    Идентификатор кодека/Подсказка : MP3
    Продолжительность : 1 ч. 14 м.
    Вид битрейта : Переменный
    Битрейт : 123 Кбит/сек
    Каналы : 2 канала
    Частота : 44,1 КГц
    Метод сжатия : С потерями
    Размер потока : 65,7 Мбайт (6%)
    Выравнивание : Соединение по промежуткам
    Продолжительность промежутка : 26 мс. (0,65 видеокадр)
    Время предзагрузки промежутка : 193 мс.
    Библиотека кодирования : LAME3.98.4ЄЄЄЄЄЄЄЄЄЄ

    Скриншоты

    Скачать .torrent

    Скачать торрент-файл бесплатно и на максимальной скорости!

    Как скачивать? · Что такое торрент? · Рейтинг и ограничения

    !ВНИМАНИЕ!
    Сайт не распространяет и не хранит электронные версии произведений, а занимается лишь лишь предоставлением доступа к создаваемому пользователями каталогу ссылок на торрент-файлы, которые содержат только списки хеш-сумм, убедительная просьба с жалобами обращаться напрямую к пользователю. Файлы для обмена на трекере предоставлены пользователями сайта, и администрация не несёт ответственности за их содержание. Просьба не заливать файлы, защищенные авторскими правами, а также файлы нелегального содержания!


    _________________
    [Профиль] [ЛС]
    Показать сообщения:    
    Ответить на тему

    Текущее время: Сегодня, в 08:03

    Часовой пояс: GMT + 2



    Вы не можете начинать темы
    Вы не можете отвечать на сообщения
    Вы не можете редактировать свои сообщения
    Вы не можете удалять свои сообщения
    Вы не можете голосовать в опросах
    Вы не можете прикреплять файлы к сообщениям
    Вы не можете скачивать файлы