BitTorrentTracker PerecTracker.org
BitTorrentTracker PerecTracker.org
    
Регистрация  ·  Вход
 
 · 
Забыли пароль?

  • Шуми городок (Николай Садкович) [1939, Комедия, музыкальный, SATRip, AVC]

    Ответить на тему
     
    Автор Сообщение

    Light

    Создавать темы 18-Апр-2015 02:48

           

    [Цитировать]

    Шуми городок
    Жанр: Комедия, музыкальный
    Страна: СССР
    Студия: Киевская киностудия
    Год выпуска: 1939
    Продолжительность: 01:11:37
    Режиссёр: Николай Садкович
    В ролях:
    Н.Муратов … Иван Анисимович Дятлов, зав.отделом изобретений
    Пётр Алейников … Вася Звягин, изобретатель, механик из колхоза "Агрономия"
    Анна Комолова … Галя, шофер Горсовета
    Ева Милютина … жена Дятлова
    Юрий Лавров … Лука Иванович, председатель Горсовета
    Антон Дунайский … Антон Васильевич, начальник пожарной охраны
    Дмитрий Капка … сигнальщик
    Олег Павленко … дирижер
    Владимир Лисовский … Петр Тимофеевич, старший инженер
    Пётр Репнин … Сидоров Александр Павлович, секретарь Горсовета
    Владимир Лепко … Семячкин
    Михаил Высоцкий … диктор
    Эмма Цесарская … Арина Тимофеевна
    Вячеслав Гомоляка … механик, эпизод
    Юрий Тимошенко … музыкант, эпизод
    Ефим Березин … музыкант, эпизод
    Андрей Апсолон … пожарник, эпизод
    Иван Любезнов … парикмахер, эпизод
    Описание: Жизнерадостная комедия о жизни периферийного городка конца 30-х годов. Несмотря на свою удаленность от центра, городок живет насыщенной жизнью: строятся новые дома, старые улицы становятся тесными. Чтобы не ломать старинные постройки, молодой изобретатель предлагает передвигать их, так как это уже сделали на улице Горького в Москве...
    Дополнительная информация: Релиз:
    Автор рипа: pmv
    Большое спасибо за:
    - Исходник DVB (http://perectracker.org/viewtopic.php?t=4973706) - Cheef mate
    (Запись потока *.ts со спутника Ямал 202, 49° в.д., с ТК «Москва-Культура»)
    IMDb = 6,0/10 from 9 users -
    Кинопоиск = 6.750 (66) -
    ПРОСЬБА к СКАЧАВШИМ. НЕ УХОДИТЕ С РАЗДАЧИ, ПОМОГИТЕ ДРУГИМ СКАЧАТЬ!!!
    ВНИМАНИЕ!!! РИП ФОРМАТА mkv (кодек H.264) ВОСПРОИЗВОДИТСЯ НЕ НА ВСЕХ БЫТОВЫХ ВИДЕОПЛЕЕРАХ!!!
    Качество видео: SATRip
    Формат видео: MKV
    Видео: AVC (H.264), 688@768x576 (1.33:1) 25.00 fps, ~1959 Kbps avg, 0.198 bit/pixel
    Аудио: 48 kHz, AC3 stereo (2 ch), ~192.00 kbps avg

    MediaInfo

    General
    Complete name : D:\torrents\шуми городок (1939).mkv
    Format : Matroska
    File size : 1.10 GiB
    Duration : 1h 11mn
    Overall bit rate : 2 194 Kbps
    Encoded date : UTC 2015-04-17 02:12:43
    Writing application : mkvmerge v7.8.0 ('River Man') 64bit built on Mar 27 2015 16:31:37
    Writing library : libebml v1.3.1 + libmatroska v1.4.2
    Video
    ID : 1
    Format : AVC
    Format/Info : Advanced Video Codec
    Format profile : High@L4.0
    Format settings, CABAC : Yes
    Format settings, ReFrames : 16 frames
    Muxing mode : Container profile=Unknown@4.0
    Codec ID : V_MPEG4/ISO/AVC
    Duration : 1h 11mn
    Bit rate : 1 959 Kbps
    Nominal bit rate : 2 000 Kbps
    Width : 688 pixels
    Height : 576 pixels
    Display aspect ratio : 4:3
    Original display aspect ratio : 1.194
    Frame rate : 25.000 fps
    Resolution : 8 bits
    Colorimetry : 4:2:0
    Scan type : Progressive
    Bits/(Pixel*Frame) : 0.198
    Stream size : 1 003 MiB (89%)
    Writing library : x264 core 130 r2273 b3065e6
    Encoding settings : cabac=1 / ref=16 / deblock=1:0:0 / analyse=0x3:0x133 / me=umh / subme=10 / psy=1 / psy_rd=1.00:0.00 / mixed_ref=1 / me_range=24 / chroma_me=1 / trellis=2 / 8x8dct=1 / cqm=0 / deadzone=21,11 / fast_pskip=1 / chroma_qp_offset=-2 / threads=2 / lookahead_threads=1 / sliced_threads=0 / nr=0 / decimate=1 / interlaced=0 / bluray_compat=0 / constrained_intra=0 / bframes=8 / b_pyramid=2 / b_adapt=2 / b_bias=0 / direct=3 / weightb=1 / open_gop=0 / weightp=2 / keyint=250 / keyint_min=25 / scenecut=40 / intra_refresh=0 / rc_lookahead=60 / rc=2pass / mbtree=1 / bitrate=2000 / ratetol=1.0 / qcomp=0.60 / qpmin=0 / qpmax=69 / qpstep=4 / cplxblur=20.0 / qblur=0.5 / ip_ratio=1.40 / aq=1:1.00
    Audio
    ID : 2
    Format : AC-3
    Format/Info : Audio Coding 3
    Codec ID : A_AC3
    Duration : 1h 11mn
    Bit rate mode : Constant
    Bit rate : 192 Kbps
    Channel(s) : 2 channels
    Channel positions : Front: L R
    Sampling rate : 48.0 KHz
    Video delay : 28ms
    Stream size : 98.4 MiB (9%)

    Скриншот c названием фильма

    Скриншоты в анаформном виде

    Скриншоты в разрешении 768 х 576

    Сравнение - Vasily_V 25-Июня-2007 20:41

    Vasily_V, 720 х 576, DVDrip, 1.34 Gb < > CaCa48, 768 x 576, SATrip, 1.10 Gb
    http://perectracker.org/viewtopic.php?t=291402
    http://screenshotcomparison.com/comparison/122434
    МОИ РАЗДАЧИ НА РУТРЕКЕРЕ: http://perectracker.org/tracker.php?rid=27390064
    Скачать .torrent

    Скачать торрент-файл бесплатно и на максимальной скорости!

    Как скачивать? · Что такое торрент? · Рейтинг и ограничения

    !ВНИМАНИЕ!
    Сайт не распространяет и не хранит электронные версии произведений, а занимается лишь лишь предоставлением доступа к создаваемому пользователями каталогу ссылок на торрент-файлы, которые содержат только списки хеш-сумм, убедительная просьба с жалобами обращаться напрямую к пользователю. Файлы для обмена на трекере предоставлены пользователями сайта, и администрация не несёт ответственности за их содержание. Просьба не заливать файлы, защищенные авторскими правами, а также файлы нелегального содержания!


    _________________
    [Профиль] [ЛС]
    Показать сообщения:    
    Ответить на тему

    Текущее время: Сегодня, в 14:41

    Часовой пояс: GMT + 2



    Вы не можете начинать темы
    Вы не можете отвечать на сообщения
    Вы не можете редактировать свои сообщения
    Вы не можете удалять свои сообщения
    Вы не можете голосовать в опросах
    Вы не можете прикреплять файлы к сообщениям
    Вы не можете скачивать файлы